<?xml version="1.0" standalone="no"?>
<!DOCTYPE svg PUBLIC "-//W3C//DTD SVG 1.1//EN" "http://www.w3.org/Graphics/SVG/1.1/DTD/svg11.dtd" >
<svg xmlns="http://www.w3.org/2000/svg">
<metadata></metadata>
<defs>
<font id="trade_gothic_lt_std_cnbold" horiz-adv-x="909" >
<font-face units-per-em="2048" ascent="1479" descent="-569" />
<missing-glyph horiz-adv-x="454" />
<glyph unicode="&#xfb01;" d="M-8 913v189h135v137q0 131 66 195.5t190 64.5h115v-188h-66q-41 0 -58.5 -17t-17.5 -57v-135h131v-189h-131v-913h-229v913h-135zM567 0v1102h230v-1102h-230zM567 1270v209h230v-209h-230z" />
<glyph unicode="&#xfb02;" d="M-8 913v189h135v137q0 131 66 195.5t190 64.5h115v-188h-66q-41 0 -58.5 -17t-17.5 -57v-135h131v-189h-131v-913h-229v913h-135zM567 0v1479h230v-1479h-230z" />
<glyph horiz-adv-x="2048" />
<glyph horiz-adv-x="2048" />
<glyph unicode="&#xd;" horiz-adv-x="2048" />
<glyph unicode=" "  horiz-adv-x="454" />
<glyph unicode="&#x09;" horiz-adv-x="454" />
<glyph unicode="&#xa0;" horiz-adv-x="454" />
<glyph unicode="!" horiz-adv-x="569" d="M156 1479h258l-45 -1045h-168zM164 0v242h242v-242h-242z" />
<glyph unicode="&#x22;" horiz-adv-x="681" d="M82 918v561h192v-561h-192zM408 918v561h192v-561h-192z" />
<glyph unicode="#" d="M20 438v160h156l31 283h-135v159h155l52 439h182l-51 -439h165l52 439h182l-51 -439h131v-159h-148l-32 -283h127v-160h-148l-49 -438h-184l51 438h-166l-49 -438h-187l52 438h-136zM360 598h164l33 283h-164z" />
<glyph unicode="$" d="M61 231l170 129q22 -58 63.5 -102.5t98.5 -60.5v481q-66 40 -116.5 79.5t-97.5 91.5t-72 116t-25 135q0 148 82.5 253.5t228.5 125.5v180h123v-180q178 -36 285 -187l-156 -133q-15 24 -25 39t-26.5 33.5t-36 30t-41.5 16.5v-424q62 -39 102.5 -68.5t88.5 -74t75.5 -87.5 t46.5 -102t19 -125q0 -160 -88 -272t-244 -125v-238h-123v238q-100 10 -186 73.5t-146 157.5zM291 1126q0 -64 25.5 -111t76.5 -93v356q-47 -15 -74.5 -57t-27.5 -95zM516 197q61 24 88 70.5t27 119.5q0 69 -28 114.5t-87 98.5v-403z" />
<glyph unicode="%" horiz-adv-x="1593" d="M102 1143q0 139 98 237.5t238 98.5t238 -98.5t98 -237.5t-98 -237.5t-238 -98.5t-238 98.5t-98 237.5zM266 1143q0 -71 51 -121.5t121 -50.5t121 50.5t51 121.5t-51 121.5t-121 50.5t-121 -50.5t-51 -121.5zM303 -20l838 1519h153l-837 -1519h-154zM819 336 q0 140 98.5 238t237.5 98t237.5 -98t98.5 -238t-98.5 -238t-237.5 -98t-237.5 98t-98.5 238zM983 336q0 -70 50.5 -121t121.5 -51t121.5 51t50.5 121t-50.5 121t-121.5 51t-121.5 -51t-50.5 -121z" />
<glyph unicode="&#x26;" horiz-adv-x="1138" d="M106 326q0 108 55 216t140 201q-117 263 -117 408q0 156 83.5 252t238.5 96q139 0 220 -84t81 -223q0 -27 -4.5 -54.5t-10 -50t-19.5 -50.5t-21.5 -45t-29 -46.5t-29.5 -41.5t-35 -43.5t-33.5 -39t-37 -41t-34.5 -37.5q82 -171 184 -301q70 179 90 275l209 -55 q-7 -33 -17.5 -69t-18.5 -61t-25.5 -69t-23.5 -59.5t-28 -68t-26 -61.5q63 -57 141 -69v-225q-168 3 -286 112q-62 -59 -129.5 -85.5t-161.5 -26.5q-160 0 -257.5 95.5t-97.5 250.5zM340 358q0 -66 42 -111.5t107 -45.5q37 0 62.5 9t54.5 34q-137 162 -203 297 q-35 -54 -49 -91t-14 -92zM393 1206q0 -112 70 -284q38 50 60 84t42.5 86t20.5 100q0 160 -92 160q-47 0 -74 -38.5t-27 -107.5z" />
<glyph unicode="'" horiz-adv-x="454" d="M131 918v561h193v-561h-193z" />
<glyph unicode="(" horiz-adv-x="569" d="M66 662q0 223 63.5 441.5t177.5 395.5h197q-117 -180 -179.5 -395t-62.5 -442t63 -442.5t179 -395.5h-197q-114 177 -177.5 396t-63.5 442z" />
<glyph unicode=")" horiz-adv-x="569" d="M66 -176q116 180 178.5 395.5t62.5 442.5t-62.5 442t-178.5 395h196q114 -177 178 -395.5t64 -441.5t-64 -442t-178 -396h-196z" />
<glyph unicode="*" d="M86 1139l61 182q119 -72 261 -137q-10 130 -50 295h193q-38 -159 -49 -295q138 63 260 137l61 -182q-46 -2 -97 -7.5t-116 -14.5t-96 -13q130 -141 227 -219l-161 -113q-22 63 -125 287q-103 -224 -125 -287l-162 113q97 78 227 219q-31 4 -96 13t-116 14.5t-97 7.5z" />
<glyph unicode="+" horiz-adv-x="1228" d="M96 418v200h418v418h201v-418h418v-200h-418v-418h-201v418h-418z" />
<glyph unicode="," horiz-adv-x="454" d="M98 -254l101 254h-93v242h242v-242l-141 -254h-109z" />
<glyph unicode="-" horiz-adv-x="681" d="M90 457v188h502v-188h-502z" />
<glyph unicode="." horiz-adv-x="454" d="M106 0v242h242v-242h-242z" />
<glyph unicode="/" horiz-adv-x="569" d="M-43 -20l455 1519h200l-454 -1519h-201z" />
<glyph unicode="0" d="M94 385v709q0 210 86 307.5t275 97.5t274.5 -97t85.5 -308v-709q0 -211 -85.5 -308t-274.5 -97t-275 97.5t-86 307.5zM336 322q0 -142 119 -142q118 0 118 142v835q0 141 -118 141q-119 0 -119 -141v-835z" />
<glyph unicode="1" d="M162 1171v138q193 97 301 190h129v-1499h-230v1171h-200z" />
<glyph unicode="2" d="M90 0v199q87 128 127.5 188t105 158t93.5 148t67.5 122t54.5 118.5t28 98.5t12 98q0 168 -115 168q-60 0 -91.5 -41.5t-31.5 -111.5v-101h-242v70q0 168 101.5 276.5t275.5 108.5q152 0 248 -97t96 -231q0 -123 -35.5 -233.5t-135 -279t-300.5 -449.5h449v-209h-707z" />
<glyph unicode="3" d="M94 340v88h230v-100q0 -148 114 -148q121 0 121 174v113q0 118 -49 163.5t-168 45.5v201q115 0 161 48t46 177q0 105 -23.5 150.5t-79.5 45.5q-57 0 -85.5 -33.5t-28.5 -117.5v-62h-230v70q0 154 92 249t255 95q105 0 181.5 -54.5t112 -138.5t35.5 -186q0 -136 -33 -212 t-127 -128q110 -57 146.5 -134t36.5 -232q0 -222 -90 -328t-279 -106q-338 0 -338 360z" />
<glyph unicode="4" d="M33 356v189l430 934h246v-934h135v-189h-135v-356h-234v356h-442zM227 545h252v577h-4z" />
<glyph unicode="5" d="M102 315v113h230v-119q0 -60 30.5 -94.5t81.5 -34.5q62 0 93.5 42t31.5 138v336q0 68 -30 101.5t-76 33.5q-95 0 -137 -112h-197q18 515 18 760h617l-8 -209h-400l-14 -320l4 -4q44 53 86.5 69.5t108.5 16.5q142 0 206 -98.5t64 -290.5v-205q0 -236 -81 -347t-263 -111 q-166 0 -265.5 80.5t-99.5 254.5z" />
<glyph unicode="6" d="M94 385v709q0 210 86 307.5t275 97.5q148 3 238.5 -90.5t90.5 -237.5v-90h-221v76q0 73 -25.5 107t-82.5 34q-119 0 -119 -141v-346q55 55 96.5 76.5t112.5 21.5q119 0 194.5 -74.5t75.5 -228.5v-176q0 -235 -85 -342.5t-275 -107.5q-189 0 -275 97.5t-86 307.5zM336 322 q0 -142 119 -142q118 0 118 142v245q0 70 -28.5 106t-77.5 36q-47 0 -131 -68v-319z" />
<glyph unicode="7" d="M115 1270v209h667v-144l-301 -1335h-239l297 1270h-424z" />
<glyph unicode="8" d="M94 410q0 145 32.5 233t121.5 145q-65 48 -99 126.5t-34 168.5q0 210 89 313t251 103t251 -103t89 -313q0 -90 -34 -168.5t-99 -126.5q89 -57 121 -145t32 -233q0 -210 -91 -320t-269 -110t-269.5 110t-91.5 320zM324 426q0 -121 30 -183.5t101 -62.5t101 62.5t30 183.5 t-30 183.5t-101 62.5t-101 -62.5t-30 -183.5zM344 1096q0 -107 26 -155t85 -48q58 0 84 48t26 155t-26 154.5t-84 47.5q-59 0 -85 -47.5t-26 -154.5z" />
<glyph unicode="9" d="M94 872v177q0 234 85.5 342t275.5 108q189 0 274.5 -97t85.5 -308v-709q0 -211 -85.5 -308t-274.5 -97q-148 -3 -239 90t-91 237v90h221v-75q0 -73 26 -107.5t83 -34.5q118 0 118 142v346q-56 -56 -96.5 -77.5t-111.5 -21.5q-119 0 -195 74.5t-76 228.5zM336 911 q0 -70 28.5 -105.5t77.5 -35.5q47 0 131 68v319q0 141 -118 141q-119 0 -119 -141v-246z" />
<glyph unicode=":" horiz-adv-x="454" d="M106 0v242h242v-242h-242zM106 569v242h242v-242h-242z" />
<glyph unicode=";" horiz-adv-x="454" d="M98 -254l101 254h-93v242h242v-242l-141 -254h-109zM106 569v242h242v-242h-242z" />
<glyph unicode="&#x3c;" horiz-adv-x="1228" d="M96 432v172l1037 432v-213l-748 -305l748 -305v-213z" />
<glyph unicode="=" horiz-adv-x="1228" d="M96 205v201h1037v-201h-1037zM96 631v200h1037v-200h-1037z" />
<glyph unicode="&#x3e;" horiz-adv-x="1228" d="M96 0v213l748 305l-748 305v213l1037 -432v-172z" />
<glyph unicode="?" horiz-adv-x="796" d="M66 1229q48 137 137 203.5t233 66.5q118 0 206.5 -79t88.5 -195q0 -126 -69 -235q-12 -19 -58 -83q-30 -41 -47.5 -69.5t-38.5 -73.5t-31 -99.5t-10 -119.5v-111h-196v172q0 159 106 355q5 10 30 54.5t32 59t21.5 46.5t19 54t4.5 44q0 38 -24.5 65t-61.5 27 q-59 0 -94.5 -45.5t-51.5 -110.5zM254 0v242h242v-242h-242z" />
<glyph unicode="@" horiz-adv-x="1638" d="M82 739q0 162 61 304t164.5 241.5t245.5 157t299 57.5q185 0 344.5 -76t259.5 -219.5t100 -324.5q0 -120 -38.5 -221.5t-97 -167t-128.5 -111.5t-132 -66t-109 -20q-49 0 -81.5 28t-35.5 82l-4 3q-44 -49 -103.5 -81t-117.5 -32q-130 0 -224 100t-94 240q0 131 53.5 248 t156 192.5t230.5 75.5q159 0 240 -133l33 106h166l-129 -526q-15 -63 -15 -80q0 -55 33 -55q90 0 164 109t74 266q0 120 -42.5 216.5t-117 158.5t-173.5 95t-214 33q-172 0 -305.5 -78.5t-206 -216t-72.5 -309.5t78 -308.5t217 -212t313 -75.5q128 0 241.5 44t195.5 126h170 q-104 -158 -266 -243.5t-353 -85.5q-162 0 -305 55t-248 152.5t-166 240.5t-61 311zM596 659q0 -78 44.5 -130t115.5 -52t130.5 48.5t90.5 119t31 141.5q0 76 -45 127.5t-113 51.5q-106 0 -180 -98.5t-74 -207.5z" />
<glyph unicode="A" d="M25 0l272 1479h315l273 -1479h-246l-45 328h-279l-45 -328h-245zM352 549h205l-100 635h-4z" />
<glyph unicode="B" horiz-adv-x="1024" d="M123 0v1479h377q393 0 393 -392q0 -103 -44.5 -188.5t-131.5 -120.5q101 -45 153 -128.5t52 -221.5q0 -94 -22 -170t-68 -135t-124.5 -91t-183.5 -32h-401zM377 209h106q99 0 142 55.5t43 171.5q0 117 -48.5 172.5t-160.5 55.5h-82v-455zM377 872h92q75 0 122.5 50 t47.5 139q0 209 -166 209h-96v-398z" />
<glyph unicode="C" horiz-adv-x="1024" d="M123 358v762q0 80 24 147.5t70.5 120t122 82t172.5 29.5q93 0 166 -32t118.5 -88t69 -128.5t23.5 -156.5v-109h-254v115q0 89 -35 133.5t-88 44.5q-74 0 -104.5 -39t-30.5 -125v-749q0 -86 30.5 -125t104.5 -39q67 0 95 37t28 112v178h254v-170q0 -165 -97 -271.5 t-280 -106.5q-191 0 -290 106t-99 272z" />
<glyph unicode="D" horiz-adv-x="1024" d="M123 0v1479h377q401 0 401 -447v-586q0 -446 -401 -446h-377zM377 209h88q102 0 142 45t40 162v647q0 117 -40 162t-142 45h-88v-1061z" />
<glyph unicode="E" d="M123 0v1479h680v-222h-426v-380h328v-222h-328v-434h454v-221h-708z" />
<glyph unicode="F" d="M123 0v1479h708v-222h-454v-380h340v-222h-340v-655h-254z" />
<glyph unicode="G" horiz-adv-x="1024" d="M123 358v762q0 165 96.5 272t276.5 107q123 0 211 -56t129 -146t41 -203v-95h-242q0 109 -16.5 170.5t-47 85t-82.5 23.5q-112 0 -112 -162v-760q0 -155 119 -155q76 0 107.5 47t31.5 158v143h-162v201h416v-750h-123l-47 111q-60 -71 -115 -101t-141 -30 q-153 0 -246.5 101.5t-93.5 276.5z" />
<glyph unicode="H" horiz-adv-x="1024" d="M123 0v1479h254v-602h270v602h254v-1479h-254v655h-270v-655h-254z" />
<glyph unicode="I" horiz-adv-x="569" d="M158 0v1479h254v-1479h-254z" />
<glyph unicode="J" horiz-adv-x="569" d="M6 -20v221h53q72 0 103 30t31 93v1155h253v-1184q0 -74 -16.5 -129t-55.5 -98.5t-110 -65.5t-174 -22h-84z" />
<glyph unicode="K" d="M111 0v1479h254v-547h4l266 547h254l-275 -551l310 -928h-258l-207 688h-4l-90 -164v-524h-254z" />
<glyph unicode="L" horiz-adv-x="796" d="M111 0v1479h254v-1258h399v-221h-653z" />
<glyph unicode="M" horiz-adv-x="1251" d="M109 0v1479h333l181 -865h4l180 865h334v-1479h-221v1155h-5l-229 -1155h-123l-229 1155h-4v-1155h-221z" />
<glyph unicode="N" horiz-adv-x="1024" d="M123 0v1479h235l310 -846h4v846h229v-1479h-221l-324 924h-4v-924h-229z" />
<glyph unicode="O" horiz-adv-x="1024" d="M123 358v762q0 80 24 147.5t70.5 120t122 82t172.5 29.5t172.5 -29.5t122 -82t70.5 -120t24 -147.5v-762q0 -166 -99 -272t-290 -106t-290 106t-99 272zM377 365q0 -86 30.5 -125t104.5 -39t104.5 39t30.5 125v749q0 86 -30.5 125t-104.5 39t-104.5 -39t-30.5 -125v-749z " />
<glyph unicode="P" horiz-adv-x="1024" d="M123 0v1479h364q238 0 348.5 -102t110.5 -335t-110.5 -334.5t-348.5 -101.5h-110v-606h-254zM377 815h98q125 0 171 47.5t46 179.5t-46 180t-171 48h-98v-455z" />
<glyph unicode="Q" horiz-adv-x="1024" d="M123 358v762q0 80 24 147.5t70.5 120t122 82t172.5 29.5t172.5 -29.5t122 -82t70.5 -120t24 -147.5v-762q0 -108 -43 -190q61 -53 119 -57v-222q-80 0 -137.5 27t-120.5 111q-83 -47 -207 -47q-191 0 -290 106t-99 272zM377 365q0 -86 30.5 -125t104.5 -39q58 0 86 22 q-27 49 -68 80v225q68 -35 117 -90v676q0 86 -30.5 125t-104.5 39t-104.5 -39t-30.5 -125v-749z" />
<glyph unicode="R" horiz-adv-x="1024" d="M123 0v1479h356q219 0 324.5 -102.5t105.5 -334.5q0 -291 -178 -372l215 -670h-258l-180 612q-49 -6 -131 -6v-606h-254zM377 815h90q105 0 146.5 48.5t41.5 178.5t-42 179t-146 49h-90v-455z" />
<glyph unicode="S" d="M57 389l242 35q7 -110 48 -166.5t104 -56.5q67 0 107 35t40 100q0 59 -28.5 113.5t-74 98.5t-100.5 89t-110 95t-100.5 105.5t-74 131t-28.5 161.5q0 177 102.5 273t290.5 96q151 0 242.5 -98t109.5 -260l-241 -27q-7 87 -46 125.5t-89 38.5q-61 0 -94 -38t-33 -107 q0 -51 28.5 -101t74 -93.5t100.5 -89.5t110 -97.5t100.5 -108t74 -130.5t28.5 -155q0 -179 -110 -278.5t-292 -99.5q-170 0 -271.5 117.5t-109.5 291.5z" />
<glyph unicode="T" horiz-adv-x="796" d="M25 1257v222h745v-222h-246v-1257h-254v1257h-245z" />
<glyph unicode="U" horiz-adv-x="1024" d="M123 373v1106h254v-1117q0 -82 33 -121.5t102 -39.5t102 39.5t33 121.5v1117h254v-1106q0 -189 -103 -291t-286 -102t-286 102t-103 291z" />
<glyph unicode="V" d="M18 1479h250l185 -1026h4l184 1026h250l-309 -1479h-254z" />
<glyph unicode="W" horiz-adv-x="1366" d="M0 1479h238l155 -942h4l166 942h209l172 -942h4l142 942h237l-260 -1479h-213l-184 977h-4l-172 -977h-213z" />
<glyph unicode="X" d="M29 0l290 774l-270 705h250l156 -469h4l141 469h250l-256 -705l287 -774h-250l-172 539h-4l-176 -539h-250z" />
<glyph unicode="Y" d="M20 1479h259l178 -564h4l170 564h258l-307 -865v-614h-254v614z" />
<glyph unicode="Z" d="M90 0v242l473 1015h-416v222h672v-242l-467 -1016h467v-221h-729z" />
<glyph unicode="[" horiz-adv-x="569" d="M74 -156v1635h438v-99h-242v-1437h242v-99h-438z" />
<glyph unicode="\" horiz-adv-x="569" d="M-43 1499h201l454 -1519h-200z" />
<glyph unicode="]" horiz-adv-x="569" d="M57 -57h242v1437h-242v99h439v-1635h-439v99z" />
<glyph unicode="^" horiz-adv-x="1228" d="M115 618l389 861h221l389 -861h-223l-279 619l-278 -619h-219z" />
<glyph unicode="_" horiz-adv-x="1024" d="M0 -154h1024v-102h-1024v102z" />
<glyph unicode="`" horiz-adv-x="454" d="M-66 1528h277l162 -295h-170z" />
<glyph unicode="a" d="M70 227q0 176 116 289.5t373 210.5v66q0 141 -113 141q-73 0 -100.5 -39t-30.5 -117h-229q9 165 107 254.5t262 89.5q162 0 247.5 -75t85.5 -224v-706q0 -25 16 -117h-220q-1 16 -6.5 44.5t-6.5 41.5q-68 -56 -128 -81t-140 -25q-113 0 -173 68.5t-60 178.5zM299 268 q0 -53 26.5 -76.5t80.5 -23.5q81 0 153 102v289q-150 -86 -205 -150.5t-55 -140.5z" />
<glyph unicode="b" d="M111 0v1479h229v-471q56 46 82 64.5t67 34t89 15.5q109 0 171 -79.5t62 -227.5v-528q0 -148 -62 -227.5t-171 -79.5q-83 0 -134.5 30t-111.5 105h-4v-115h-217zM340 225q78 -57 131 -57q52 0 81.5 38.5t29.5 139.5v410q0 101 -29.5 139.5t-81.5 38.5q-53 0 -131 -57v-652 z" />
<glyph unicode="c" d="M98 389v324q0 409 357 409q349 0 356 -397h-229v29q0 180 -127 180t-127 -180v-406q0 -180 127 -180t127 180v70h229v-29q0 -409 -356 -409q-357 0 -357 409z" />
<glyph unicode="d" d="M98 287v528q0 148 62.5 227.5t171.5 79.5q37 0 65 -6t59 -24.5t50 -33t63 -50.5v471h230v-1479h-217v115h-4q-60 -75 -111.5 -105t-134.5 -30q-109 0 -171.5 79.5t-62.5 227.5zM328 346q0 -101 29 -139.5t81 -38.5q53 0 131 57v652q-78 57 -131 57q-52 0 -81 -38.5 t-29 -139.5v-410z" />
<glyph unicode="e" d="M98 389v324q0 409 357 409q356 0 356 -409v-205h-483v-160q0 -180 127 -180t127 180v25h229q-7 -393 -356 -393q-357 0 -357 409zM328 696h254v58q0 180 -127 180t-127 -180v-58z" />
<glyph unicode="f" horiz-adv-x="569" d="M20 913v189h136v137q0 131 66 195.5t190 64.5h114v-188h-65q-41 0 -58.5 -17t-17.5 -57v-135h131v-189h-131v-913h-229v913h-136z" />
<glyph unicode="g" d="M37 -172q0 63 43.5 110.5t105.5 61.5v4q-104 43 -104 139q0 52 42 99.5t97 79.5q-62 43 -90.5 82.5t-42.5 111t-14 201.5q0 225 80.5 315t275.5 90q153 0 254 -118q48 71 83.5 94.5t104.5 23.5v-190q-12 2 -36 2q-68 0 -111 -35q25 -89 25 -174q0 -125 -21.5 -210.5 t-66.5 -136.5t-108 -73t-153 -22h-73q-20 -5 -32.5 -18.5t-12.5 -33.5q0 -30 32.5 -44t84.5 -17t114.5 -4t125.5 -11.5t115 -33.5t84.5 -75.5t32.5 -131.5q0 -262 -471 -262q-173 0 -268.5 45.5t-95.5 130.5zM279 -102q0 -44 41 -63t153 -19t153.5 19t41.5 63t-41.5 63 t-153.5 19t-153 -19t-41 -63zM291 702q0 -133 28 -182t87 -49q68 0 91 46t23 185t-23 185.5t-91 46.5q-59 0 -87 -49.5t-28 -182.5z" />
<glyph unicode="h" d="M111 0v1479h229v-480q38 34 48.5 42.5t41.5 31t50.5 29t53 13.5t72.5 7q90 0 141.5 -61.5t51.5 -169.5v-891h-230v854q0 40 -22 60t-60 20q-33 0 -66 -17t-81 -53v-864h-229z" />
<glyph unicode="i" horiz-adv-x="454" d="M113 0v1102h229v-1102h-229zM113 1270v209h229v-209h-229z" />
<glyph unicode="j" horiz-adv-x="454" d="M0 -139h39q86 0 86 86v1153h229v-1163q0 -79 -21 -136.5t-59.5 -89t-84 -45.5t-101.5 -14h-88v209zM125 1270v209h229v-209h-229z" />
<glyph unicode="k" d="M111 0v1479h229v-766h4l252 389h246l-240 -348l266 -754h-231l-184 547h-4l-109 -162v-385h-229z" />
<glyph unicode="l" horiz-adv-x="454" d="M113 0v1479h229v-1479h-229z" />
<glyph unicode="m" horiz-adv-x="1366" d="M111 0v1102h217v-111q89 76 119 94q60 37 135 37q81 0 120.5 -28.5t79.5 -102.5q81 77 135.5 104t120.5 27q105 0 160 -61t55 -170v-891h-229v854q0 39 -23 59.5t-59 20.5q-33 0 -66 -17.5t-79 -52.5v-864h-230v854q0 40 -22 60t-58 20q-33 0 -66 -17t-81 -53v-864h-229z " />
<glyph unicode="n" d="M111 0v1102h217v-111q85 73 116 91q67 40 162 40q90 0 141.5 -61.5t51.5 -169.5v-891h-230v854q0 40 -22 60t-60 20q-33 0 -66 -17t-81 -53v-864h-229z" />
<glyph unicode="o" d="M98 389v324q0 409 357 409q356 0 356 -409v-324q0 -409 -356 -409q-357 0 -357 409zM328 348q0 -180 127 -180t127 180v406q0 180 -127 180t-127 -180v-406z" />
<glyph unicode="p" d="M111 -348v1450h217v-115h4q60 75 111.5 105t134.5 30q109 0 171 -79.5t62 -227.5v-528q0 -148 -62 -227.5t-171 -79.5q-48 0 -89 15.5t-67 34t-82 64.5v-442h-229zM340 225q78 -57 131 -57q52 0 81.5 38.5t29.5 139.5v410q0 101 -29.5 139.5t-81.5 38.5q-53 0 -131 -57 v-652z" />
<glyph unicode="q" d="M98 287v528q0 148 62.5 227.5t171.5 79.5q83 0 134.5 -30t111.5 -105h4v115h217v-1450h-230v442q-44 -36 -63 -50.5t-50 -33t-59 -24.5t-65 -6q-109 0 -171.5 79.5t-62.5 227.5zM328 346q0 -101 29 -139.5t81 -38.5q53 0 131 57v652q-78 57 -131 57q-52 0 -81 -38.5 t-29 -139.5v-410z" />
<glyph unicode="r" horiz-adv-x="681" d="M111 0v1102h219v-129h4q41 70 109.5 109.5t150.5 39.5h47v-239q-90 22 -147 22q-63 0 -108.5 -38.5t-45.5 -108.5v-758h-229z" />
<glyph unicode="s" horiz-adv-x="796" d="M55 287l201 55q12 -80 46 -127t106 -47q45 0 73.5 25.5t28.5 70.5q0 44 -32 87t-79.5 76.5t-103.5 76.5t-103.5 85.5t-79.5 104.5t-32 133q0 129 88 212t219 83q132 0 220.5 -80.5t115.5 -212.5l-195 -32q-25 137 -131 137q-45 0 -72.5 -23t-27.5 -65q0 -35 23.5 -68.5 t61.5 -63t84 -61.5t92 -69.5t84 -80.5t61.5 -101.5t23.5 -125.5q0 -143 -88 -219.5t-233 -76.5q-148 0 -236 79.5t-115 227.5z" />
<glyph unicode="t" horiz-adv-x="569" d="M20 913v189h127v297h230v-297h153v-189h-153v-634q0 -91 78 -91h75v-196q-46 -12 -114 -12q-269 0 -269 247v686h-127z" />
<glyph unicode="u" d="M111 211v891h229v-854q0 -40 22 -60t60 -20q33 0 66 17t81 53v864h230v-1102h-217v111q-5 -4 -14 -12q-42 -36 -62.5 -51.5t-54 -34.5t-68 -26t-80.5 -7q-90 0 -141 61.5t-51 169.5z" />
<glyph unicode="v" horiz-adv-x="796" d="M20 1102h234l141 -737h4l144 737h233l-266 -1102h-223z" />
<glyph unicode="w" horiz-adv-x="1138" d="M12 1102h221l101 -688h4l145 686h170l123 -686h4l125 688h221l-254 -1102h-184l-125 696h-4l-149 -696h-185z" />
<glyph unicode="x" horiz-adv-x="796" d="M25 0l245 584l-227 518h238l116 -307l123 307h238l-238 -514l250 -588h-238l-133 373h-4l-133 -373h-237z" />
<glyph unicode="y" horiz-adv-x="796" d="M20 1102h234l147 -705h5l139 705h231l-289 -1184q-36 -147 -108.5 -205.5t-204.5 -58.5h-96v188h55q83 0 117.5 43.5t34.5 134.5q0 51 -25 146z" />
<glyph unicode="z" horiz-adv-x="796" d="M61 0v188l420 725h-391v189h645v-189l-428 -725h428v-188h-674z" />
<glyph unicode="{" horiz-adv-x="569" d="M0 606v119q48 0 81.5 41.5t33.5 122.5v414q0 102 47 149t166 47h225v-98h-168q-74 0 -74 -103v-397q0 -58 -17 -104.5t-42.5 -72.5t-50 -39.5t-45.5 -16.5v-6q22 -4 45.5 -17t50 -38.5t43 -73.5t16.5 -111v-397q0 -103 74 -103h168v-98h-225q-119 0 -166 47t-47 149v422 q0 81 -33.5 122.5t-81.5 41.5z" />
<glyph unicode="|" horiz-adv-x="454" d="M127 -20v1519h201v-1519h-201z" />
<glyph unicode="}" horiz-adv-x="569" d="M16 -78h168q74 0 74 103v397q0 58 17 104.5t43 72.5t50.5 39.5t45.5 16.5v7q-22 4 -45.5 16.5t-50 38.5t-43.5 73.5t-17 110.5v397q0 103 -74 103h-168v98h226q119 0 166 -47t47 -149v-422q0 -81 33 -122.5t81 -41.5v-119q-48 0 -81 -41.5t-33 -122.5v-414 q0 -102 -47 -149t-166 -47h-226v98z" />
<glyph unicode="~" horiz-adv-x="1228" d="M125 526q28 32 39.5 45t42 40.5t54 40t60.5 23.5t76 11q83 0 228 -65q8 -3 42 -18.5t45.5 -20t37 -13t44.5 -11.5t40 -3q29 0 55 10.5t49.5 33t37.5 39t38 48.5l90 -176q-12 -11 -44.5 -42.5t-50.5 -45.5t-48 -34.5t-62 -29t-68 -8.5q-52 0 -99 17t-109 51 q-109 63 -236 63q-61 0 -101 -36t-71 -95z" />
<glyph unicode="&#xa1;" horiz-adv-x="569" d="M156 -377l45 1045h168l45 -1045h-258zM164 860v242h242v-242h-242z" />
<glyph unicode="&#xa2;" d="M78 410v323q0 93 21 166.5t65 129t118 85t175 29.5q25 0 65 -4l72 262h151l-83 -307q156 -93 159 -349h-213v29q0 78 -30 121l-187 -690q25 -17 66 -17q69 0 107 44.5t38 136.5v69h229v-28q0 -410 -374 -410q-52 0 -88 8l-68 -246h-154l82 297q-151 94 -151 351zM307 369 q0 -12 12 -66h5l165 649q-10 2 -32 2q-68 0 -109 -44.5t-41 -135.5v-405z" />
<glyph unicode="&#xa3;" d="M72 -20v219q94 31 125.5 127.5t31.5 326.5h-157v172h129q-58 250 -58 336q0 162 84 250t254 88q168 0 249 -101t81 -313h-209q-6 132 -33.5 179t-93.5 47q-53 0 -77.5 -32t-24.5 -99q0 -53 9 -108.5t26 -130t24 -116.5h203v-172h-184q-4 -162 -16.5 -250.5t-55.5 -164.5 q71 -50 143 -50q32 0 53.5 17t32.5 49.5t15 69t4 84.5h204v-121q0 -145 -71 -226t-201 -81q-138 0 -262 98q-64 -44 -116 -68.5t-109 -29.5z" />
<glyph unicode="&#xa4;" d="M16 408l97 94q-76 107 -76 237q0 131 76 238l-97 94l103 109l96 -99q109 74 240 74q128 0 237 -74l99 99l102 -109l-96 -94q75 -105 75 -238q0 -132 -75 -237l96 -94l-102 -109l-99 98q-107 -73 -237 -73q-133 0 -240 73l-96 -98zM225 739q0 -101 67 -170t163 -69 t162.5 69t66.5 170t-66.5 170.5t-162.5 69.5t-163 -69.5t-67 -170.5z" />
<glyph unicode="&#xa5;" d="M45 1479h205l207 -613h4l198 613h205l-186 -521h178v-172h-248l-55 -163h303v-172h-303v-451h-197v451h-303v172h303l-55 163h-248v172h178z" />
<glyph unicode="&#xa6;" horiz-adv-x="454" d="M127 -20v626h201v-626h-201zM127 872v627h201v-627h-201z" />
<glyph unicode="&#xa7;" horiz-adv-x="1024" d="M106 801q0 100 62.5 161t165.5 72q-103 77 -103 215q0 112 75.5 181t219.5 69q89 0 168 -46t129 -118l-141 -102q-1 1 -17 19t-20.5 22t-19 18.5t-23 19.5t-22.5 13t-27 11t-27 3q-106 0 -106 -94q0 -41 37 -92t92 -99t120 -107.5t120 -115.5t92 -124.5t37 -133.5 q0 -103 -59.5 -170.5t-162.5 -70.5q52 -51 77.5 -100.5t25.5 -120.5q0 -121 -76 -198t-195 -77q-105 0 -182.5 41t-165.5 125l150 117q67 -123 162 -123q55 0 86.5 25.5t31.5 76.5q0 36 -28 80.5t-72 90t-98 96t-108 104t-98 106.5t-72 112.5t-28 113.5zM295 817 q0 -31 68 -117.5t151.5 -161.5t120.5 -75q39 0 66.5 27t27.5 63q0 28 -66.5 113.5t-151 161t-126.5 75.5q-41 0 -65.5 -25.5t-24.5 -60.5z" />
<glyph unicode="&#xa8;" horiz-adv-x="454" d="M-45 1257v222h221v-222h-221zM279 1257v222h221v-222h-221z" />
<glyph unicode="&#xa9;" horiz-adv-x="1638" d="M41 739q0 135 41 255.5t114.5 211.5t170.5 157.5t213 101t239 34.5t239 -34.5t213 -101t170.5 -157.5t114.5 -211.5t41 -255.5q0 -169 -63.5 -313t-171 -240.5t-248.5 -151t-295 -54.5t-295 54.5t-248.5 151t-171 240.5t-63.5 313zM242 739q0 -172 76.5 -309.5t208 -214 t292.5 -76.5q158 0 290 76t210 214.5t78 309.5t-78 309.5t-210 214.5t-290 76q-161 0 -292.5 -76.5t-208 -214t-76.5 -309.5zM414 743q0 199 116.5 326t313.5 127q144 0 244.5 -82t123.5 -233h-159q-15 74 -71.5 114.5t-137.5 40.5q-113 0 -175.5 -78.5t-62.5 -209.5 q0 -125 67.5 -211t174.5 -86q86 0 141 42.5t64 118.5h166q-26 -149 -129 -235t-242 -86q-193 0 -313.5 129t-120.5 323z" />
<glyph unicode="&#xaa;" horiz-adv-x="544" d="M29 961q0 105 73.5 173t233.5 128v38q0 41 -16.5 58.5t-53.5 17.5q-75 0 -78 -84h-159q6 99 73 154q65 53 177 53q106 0 161.5 -45t55.5 -135v-426q0 -13 10 -70h-144q0 8 -3.5 22.5t-4.5 20.5q-41 -30 -80 -42.5t-94 -12.5q-73 0 -112 41.5t-39 108.5zM188 987 q0 -53 60 -53q29 0 53 17.5t35 43.5v150q-89 -45 -118.5 -78.5t-29.5 -79.5z" />
<glyph unicode="&#xab;" horiz-adv-x="1024" d="M129 553l236 313h202l-239 -315l233 -315h-196zM471 553l236 313h202l-239 -315l233 -315h-196z" />
<glyph unicode="&#xac;" horiz-adv-x="1228" d="M96 631v200h1037v-628h-201v428h-836z" />
<glyph unicode="&#xad;" horiz-adv-x="681" d="M90 457v188h502v-188h-502z" />
<glyph unicode="&#xae;" horiz-adv-x="1638" d="M41 739q0 135 41 255.5t114.5 211.5t170.5 157.5t213 101t239 34.5t239 -34.5t213 -101t170.5 -157.5t114.5 -211.5t41 -255.5q0 -169 -63.5 -313t-171 -240.5t-248.5 -151t-295 -54.5t-295 54.5t-248.5 151t-171 240.5t-63.5 313zM242 739q0 -172 76.5 -309.5t208 -214 t292.5 -76.5q158 0 290 76t210 214.5t78 309.5t-78 309.5t-210 214.5t-290 76q-161 0 -292.5 -76.5t-208 -214t-76.5 -309.5zM516 315v850h322q165 0 247 -59t82 -193q0 -110 -56 -164.5t-148 -62.5l204 -371h-186l-190 363h-107v-363h-168zM684 809h145q90 0 128 28.5 t38 90.5q0 59 -40 82.5t-134 23.5h-137v-225z" />
<glyph unicode="&#xaf;" horiz-adv-x="454" d="M-74 1305v131h602v-131h-602z" />
<glyph unicode="&#xb0;" horiz-adv-x="819" d="M115 1206q0 123 85.5 208t209.5 85t209.5 -85t85.5 -208t-85.5 -208t-209.5 -85t-209.5 85t-85.5 208zM242 1206q0 -75 47.5 -126.5t120.5 -51.5t120.5 51.5t47.5 126.5t-47.5 126.5t-120.5 51.5t-120.5 -51.5t-47.5 -126.5z" />
<glyph unicode="&#xb1;" horiz-adv-x="1228" d="M96 0v201h1037v-201h-1037zM96 555v201h418v280h201v-280h418v-201h-418v-281h-201v281h-418z" />
<glyph unicode="&#xb2;" horiz-adv-x="544" d="M29 598v166q156 178 227.5 298.5t71.5 215.5q0 57 -58 57q-29 0 -47 -20t-18 -49v-39h-176v41q0 99 74 165t190 66q98 0 160.5 -57.5t62.5 -138.5q0 -82 -17 -149.5t-77 -167t-170 -224.5h258v-164h-481z" />
<glyph unicode="&#xb3;" horiz-adv-x="544" d="M41 805v51h176v-43q0 -63 55 -63q56 0 56 79v52q0 68 -26 89t-91 21v152q61 0 87 24t26 95q0 81 -54 81q-25 0 -38 -16t-13 -41v-35h-172v41q0 92 63 149.5t169 57.5q114 0 173.5 -65.5t59.5 -161.5q0 -81 -20 -126.5t-76 -76.5q65 -34 86.5 -80.5t21.5 -140.5 q0 -134 -61.5 -198t-194.5 -64q-107 0 -167 53.5t-60 165.5z" />
<glyph unicode="&#xb4;" horiz-adv-x="454" d="M82 1233l162 295h276l-268 -295h-170z" />
<glyph unicode="&#xb5;" d="M111 -348v1450h229v-854q0 -40 22 -60t60 -20q33 0 66 17t81 53v864h230v-1102h-217v111q-46 -39 -61.5 -52t-49.5 -35.5t-63.5 -31t-67.5 -12.5v-328h-229z" />
<glyph unicode="&#xb6;" horiz-adv-x="1024" d="M12 1094q0 198 111.5 291.5t314.5 93.5h590v-131h-115v-1512h-168v1512h-178v-1512h-168v885q-177 0 -282 104.5t-105 268.5z" />
<glyph unicode="&#xb7;" horiz-adv-x="454" d="M90 518q0 57 39.5 97t97.5 40q57 0 97.5 -40t40.5 -97q0 -58 -40.5 -97.5t-97.5 -39.5q-59 0 -98 39.5t-39 97.5z" />
<glyph unicode="&#xb8;" horiz-adv-x="454" d="M-18 -436l34 102q27 -13 67.5 -24t66.5 -11q53 0 86.5 24t33.5 60q0 39 -31.5 57.5t-70 17t-68.5 -14.5l-45 37l140 188h98l-84 -123q28 4 43 4q75 -3 130.5 -43.5t55.5 -111.5q0 -94 -75.5 -151.5t-178.5 -57.5q-98 0 -202 47z" />
<glyph unicode="&#xb9;" horiz-adv-x="544" d="M86 1284v98q114 44 203 117h100v-901h-196v686h-107z" />
<glyph unicode="&#xba;" horiz-adv-x="544" d="M41 1059v194q0 246 231 246q232 0 232 -246v-194q0 -248 -232 -248q-231 0 -231 248zM209 1042q0 -100 63 -100q64 0 64 100v226q0 100 -64 100q-63 0 -63 -100v-226z" />
<glyph unicode="&#xbb;" horiz-adv-x="1024" d="M115 866h202l236 -313l-236 -317h-196l233 315zM457 866h202l236 -313l-236 -317h-196l233 315z" />
<glyph unicode="&#xbc;" horiz-adv-x="1363" d="M102 1284v98q111 43 203 115h101v-899h-197v686h-107zM152 -20l839 1519h187l-840 -1519h-186zM758 205v164l264 518h195v-527h77v-155h-77v-205h-168v205h-291zM918 360h131v273h-5z" />
<glyph unicode="&#xbd;" horiz-adv-x="1363" d="M98 1284v98q114 44 203 117h100v-901h-196v686h-107zM135 -20l840 1519h186l-839 -1519h-187zM815 0v166q156 178 227.5 298.5t71.5 215.5q0 57 -57 57q-29 0 -47.5 -20.5t-18.5 -48.5v-39h-176v41q0 99 74 165t190 66q99 0 161.5 -57.5t62.5 -138.5q0 -124 -52.5 -242 t-212.5 -299h258v-164h-481z" />
<glyph unicode="&#xbe;" horiz-adv-x="1363" d="M61 805v51h177v-43q0 -63 55 -63q28 0 41.5 18.5t13.5 60.5v52q0 68 -26 89t-91 21v152q61 0 87 24t26 95q0 81 -53 81q-25 0 -38 -16t-13 -41v-35h-172v41q0 92 62.5 149.5t168.5 57.5q114 0 173.5 -65.5t59.5 -161.5q0 -81 -20 -126.5t-76 -76.5q66 -34 87.5 -80.5 t21.5 -140.5q0 -134 -61.5 -198t-194.5 -64q-107 0 -167.5 54t-60.5 165zM190 -20l840 1519h187l-840 -1519h-187zM758 205v164l264 518h195v-527h77v-155h-77v-205h-168v205h-291zM918 360h131v273h-5z" />
<glyph unicode="&#xbf;" horiz-adv-x="796" d="M66 -123q0 51 8 93t28.5 83t33.5 61t45 64q8 11 12 17q40 54 62.5 93t43 111.5t20.5 157.5v111h197v-172q0 -159 -106 -355q-5 -10 -30 -54.5t-32 -59t-21.5 -46.5t-19 -54t-4.5 -44q0 -38 24.5 -65t61.5 -27q59 0 94.5 45.5t51.5 110.5l196 -74q-48 -137 -137.5 -203.5 t-233.5 -66.5q-118 0 -206 79t-88 195zM301 860v242h242v-242h-242z" />
<glyph unicode="&#xc0;" d="M25 0l272 1479h315l273 -1479h-246l-45 328h-279l-45 -328h-245zM162 1851h276l162 -295h-170zM352 549h205l-100 635h-4z" />
<glyph unicode="&#xc1;" d="M25 0l272 1479h315l273 -1479h-246l-45 328h-279l-45 -328h-245zM309 1556l162 295h277l-269 -295h-170zM352 549h205l-100 635h-4z" />
<glyph unicode="&#xc2;" d="M25 0l272 1479h315l273 -1479h-246l-45 328h-279l-45 -328h-245zM145 1556l197 295h225l197 -295h-189l-120 183l-121 -183h-189zM352 549h205l-100 635h-4z" />
<glyph unicode="&#xc3;" d="M25 0l272 1479h315l273 -1479h-246l-45 328h-279l-45 -328h-245zM121 1573q48 242 211 242q44 0 133 -39q6 -3 29 -13.5t33 -14.5t28 -8.5t33 -4.5q46 0 65 22t21 68h114q-48 -242 -210 -242q-50 0 -134 41q-80 39 -122 39q-46 0 -65 -22t-21 -68h-115zM352 549h205 l-100 635h-4z" />
<glyph unicode="&#xc4;" d="M25 0l272 1479h315l273 -1479h-246l-45 328h-279l-45 -328h-245zM182 1581v221h221v-221h-221zM352 549h205l-100 635h-4zM506 1581v221h221v-221h-221z" />
<glyph unicode="&#xc5;" d="M25 0l272 1479h315l273 -1479h-246l-45 328h-279l-45 -328h-245zM246 1765q0 86 61.5 147.5t147.5 61.5t147.5 -61.5t61.5 -147.5t-61.5 -147.5t-147.5 -61.5t-147.5 61.5t-61.5 147.5zM348 1765q0 -44 31.5 -75t75.5 -31t75 31t31 75t-31 75.5t-75 31.5t-75.5 -31.5 t-31.5 -75.5zM352 549h205l-100 635h-4z" />
<glyph unicode="&#xc6;" horiz-adv-x="1478" d="M25 0l477 1479h870v-222h-434v-380h336v-222h-336v-434h463v-221h-717v348h-295l-106 -348h-258zM459 569h225v725h-4z" />
<glyph unicode="&#xc7;" horiz-adv-x="1024" d="M123 358v762q0 80 24 147.5t70.5 120t122 82t172.5 29.5q93 0 166 -32t118.5 -88t69 -128.5t23.5 -156.5v-109h-254v115q0 89 -35 133.5t-88 44.5q-74 0 -104.5 -39t-30.5 -125v-749q0 -86 30.5 -125t104.5 -39q67 0 95 37t28 112v178h254v-170q0 -153 -83.5 -256 t-240.5 -120l-71 -105q28 4 43 4q75 -3 130.5 -43.5t55.5 -111.5q0 -94 -75.5 -151.5t-178.5 -57.5q-99 0 -203 47l35 102q27 -13 67 -24t66 -11q53 0 87 24t34 60q0 39 -31.5 57.5t-70 17t-68.5 -14.5l-45 37l125 170q-168 13 -255 116.5t-87 259.5z" />
<glyph unicode="&#xc8;" d="M123 0v1479h680v-222h-426v-380h328v-222h-328v-434h454v-221h-708zM186 1851h277l162 -295h-170z" />
<glyph unicode="&#xc9;" d="M123 0v1479h680v-222h-426v-380h328v-222h-328v-434h454v-221h-708zM334 1556l162 295h276l-268 -295h-170z" />
<glyph unicode="&#xca;" d="M123 0v1479h680v-222h-426v-380h328v-222h-328v-434h454v-221h-708zM170 1556l197 295h225l196 -295h-188l-121 183l-121 -183h-188z" />
<glyph unicode="&#xcb;" d="M123 0v1479h680v-222h-426v-380h328v-222h-328v-434h454v-221h-708zM207 1581v221h221v-221h-221zM530 1581v221h222v-221h-222z" />
<glyph unicode="&#xcc;" horiz-adv-x="569" d="M-8 1851h276l162 -295h-170zM158 0v1479h254v-1479h-254z" />
<glyph unicode="&#xcd;" horiz-adv-x="569" d="M139 1556l162 295h277l-269 -295h-170zM158 0v1479h254v-1479h-254z" />
<glyph unicode="&#xce;" horiz-adv-x="569" d="M-25 1556l197 295h225l197 -295h-188l-121 183l-121 -183h-189zM158 0v1479h254v-1479h-254z" />
<glyph unicode="&#xcf;" horiz-adv-x="569" d="M12 1581v221h221v-221h-221zM158 0v1479h254v-1479h-254zM336 1581v221h221v-221h-221z" />
<glyph unicode="&#xd0;" horiz-adv-x="1024" d="M41 655v222h82v602h377q401 0 401 -447v-586q0 -446 -401 -446h-377v655h-82zM377 209h88q102 0 142 45t40 162v647q0 117 -40 162t-142 45h-88v-393h151v-222h-151v-446z" />
<glyph unicode="&#xd1;" horiz-adv-x="1024" d="M123 0v1479h235l310 -846h4v846h229v-1479h-221l-324 924h-4v-924h-229zM178 1573q48 242 211 242q44 0 133 -39q6 -3 29 -13.5t33 -14.5t28 -8.5t33 -4.5q46 0 65 22t21 68h115q-48 -242 -211 -242q-49 0 -133 41q-80 39 -123 39q-46 0 -65 -22t-21 -68h-115z" />
<glyph unicode="&#xd2;" horiz-adv-x="1024" d="M123 358v762q0 80 24 147.5t70.5 120t122 82t172.5 29.5t172.5 -29.5t122 -82t70.5 -120t24 -147.5v-762q0 -166 -99 -272t-290 -106t-290 106t-99 272zM219 1851h277l161 -295h-170zM377 365q0 -86 30.5 -125t104.5 -39t104.5 39t30.5 125v749q0 86 -30.5 125t-104.5 39 t-104.5 -39t-30.5 -125v-749z" />
<glyph unicode="&#xd3;" horiz-adv-x="1024" d="M123 358v762q0 80 24 147.5t70.5 120t122 82t172.5 29.5t172.5 -29.5t122 -82t70.5 -120t24 -147.5v-762q0 -166 -99 -272t-290 -106t-290 106t-99 272zM367 1556l161 295h277l-268 -295h-170zM377 365q0 -86 30.5 -125t104.5 -39t104.5 39t30.5 125v749q0 86 -30.5 125 t-104.5 39t-104.5 -39t-30.5 -125v-749z" />
<glyph unicode="&#xd4;" horiz-adv-x="1024" d="M123 358v762q0 80 24 147.5t70.5 120t122 82t172.5 29.5t172.5 -29.5t122 -82t70.5 -120t24 -147.5v-762q0 -166 -99 -272t-290 -106t-290 106t-99 272zM203 1556l196 295h226l196 -295h-188l-121 183l-121 -183h-188zM377 365q0 -86 30.5 -125t104.5 -39t104.5 39 t30.5 125v749q0 86 -30.5 125t-104.5 39t-104.5 -39t-30.5 -125v-749z" />
<glyph unicode="&#xd5;" horiz-adv-x="1024" d="M123 358v762q0 80 24 147.5t70.5 120t122 82t172.5 29.5t172.5 -29.5t122 -82t70.5 -120t24 -147.5v-762q0 -166 -99 -272t-290 -106t-290 106t-99 272zM178 1573q48 242 211 242q44 0 133 -39q6 -3 29 -13.5t33 -14.5t28 -8.5t33 -4.5q46 0 65 22t21 68h115 q-48 -242 -211 -242q-49 0 -133 41q-80 39 -123 39q-46 0 -65 -22t-21 -68h-115zM377 365q0 -86 30.5 -125t104.5 -39t104.5 39t30.5 125v749q0 86 -30.5 125t-104.5 39t-104.5 -39t-30.5 -125v-749z" />
<glyph unicode="&#xd6;" horiz-adv-x="1024" d="M123 358v762q0 80 24 147.5t70.5 120t122 82t172.5 29.5t172.5 -29.5t122 -82t70.5 -120t24 -147.5v-762q0 -166 -99 -272t-290 -106t-290 106t-99 272zM240 1581v221h221v-221h-221zM377 365q0 -86 30.5 -125t104.5 -39t104.5 39t30.5 125v749q0 86 -30.5 125t-104.5 39 t-104.5 -39t-30.5 -125v-749zM563 1581v221h221v-221h-221z" />
<glyph unicode="&#xd7;" horiz-adv-x="1228" d="M96 143l377 375l-377 377l142 141l376 -377l377 377l142 -141l-375 -377l375 -375l-142 -143l-377 377l-376 -377z" />
<glyph unicode="&#xd8;" horiz-adv-x="1024" d="M57 -246l142 361q-76 98 -76 243v762q0 80 24 147.5t70.5 120t122 82t172.5 29.5q126 0 211 -49l78 197h166l-121 -312q55 -88 55 -215v-762q0 -166 -99 -272t-290 -106q-109 0 -184 34l-103 -260h-168zM377 526h4l258 666q-21 86 -127 86q-74 0 -104.5 -39t-30.5 -125 v-588zM403 248q24 -47 109 -47q74 0 104.5 39t30.5 125v503h-4z" />
<glyph unicode="&#xd9;" horiz-adv-x="1024" d="M123 373v1106h254v-1117q0 -82 33 -121.5t102 -39.5t102 39.5t33 121.5v1117h254v-1106q0 -189 -103 -291t-286 -102t-286 102t-103 291zM219 1851h277l161 -295h-170z" />
<glyph unicode="&#xda;" horiz-adv-x="1024" d="M123 373v1106h254v-1117q0 -82 33 -121.5t102 -39.5t102 39.5t33 121.5v1117h254v-1106q0 -189 -103 -291t-286 -102t-286 102t-103 291zM367 1556l161 295h277l-268 -295h-170z" />
<glyph unicode="&#xdb;" horiz-adv-x="1024" d="M123 373v1106h254v-1117q0 -82 33 -121.5t102 -39.5t102 39.5t33 121.5v1117h254v-1106q0 -189 -103 -291t-286 -102t-286 102t-103 291zM203 1556l196 295h226l196 -295h-188l-121 183l-121 -183h-188z" />
<glyph unicode="&#xdc;" horiz-adv-x="1024" d="M123 373v1106h254v-1117q0 -82 33 -121.5t102 -39.5t102 39.5t33 121.5v1117h254v-1106q0 -189 -103 -291t-286 -102t-286 102t-103 291zM240 1581v221h221v-221h-221zM563 1581v221h221v-221h-221z" />
<glyph unicode="&#xdd;" d="M20 1479h259l178 -564h4l170 564h258l-307 -865v-614h-254v614zM309 1556l162 295h277l-269 -295h-170z" />
<glyph unicode="&#xde;" horiz-adv-x="1024" d="M123 0v1479h254v-287h110q238 0 348.5 -101.5t110.5 -334.5t-110.5 -335t-348.5 -102h-110v-319h-254zM377 528h98q125 0 171 48t46 180t-46 179.5t-171 47.5h-98v-455z" />
<glyph unicode="&#xdf;" d="M111 0v1106q0 190 84 287.5t241 97.5q99 0 169 -30.5t108 -88t54.5 -126.5t16.5 -159q0 -254 -149 -274v-4q98 -31 143 -123.5t45 -267.5q0 -120 -15.5 -202t-46.5 -129t-73.5 -67t-101.5 -20h-135v195q28 -7 55 -7q44 0 62 33t18 105v206q0 160 -127 160v189 q60 9 78 36.5t18 110.5v143q0 70 -25.5 101t-80.5 31q-58 0 -83.5 -36t-25.5 -116v-1151h-229z" />
<glyph unicode="&#xe0;" d="M70 227q0 176 116 289.5t373 210.5v66q0 141 -113 141q-73 0 -100.5 -39t-30.5 -117h-229q9 165 107 254.5t262 89.5q162 0 247.5 -75t85.5 -224v-706q0 -25 15 -117h-219q-1 16 -6.5 44.5t-6.5 41.5q-68 -56 -128 -81t-140 -25q-113 0 -173 68.5t-60 178.5zM162 1528 h276l162 -295h-170zM299 268q0 -53 26.5 -76.5t80.5 -23.5q81 0 153 102v289q-150 -86 -205 -150.5t-55 -140.5z" />
<glyph unicode="&#xe1;" d="M70 227q0 176 116 289.5t373 210.5v66q0 141 -113 141q-73 0 -100.5 -39t-30.5 -117h-229q9 165 107 254.5t262 89.5q162 0 247.5 -75t85.5 -224v-706q0 -25 15 -117h-219q-1 16 -6.5 44.5t-6.5 41.5q-68 -56 -128 -81t-140 -25q-113 0 -173 68.5t-60 178.5zM299 268 q0 -53 26.5 -76.5t80.5 -23.5q81 0 153 102v289q-150 -86 -205 -150.5t-55 -140.5zM309 1233l162 295h277l-269 -295h-170z" />
<glyph unicode="&#xe2;" d="M70 227q0 176 116 289.5t373 210.5v66q0 141 -113 141q-73 0 -100.5 -39t-30.5 -117h-229q9 165 107 254.5t262 89.5q162 0 247.5 -75t85.5 -224v-706q0 -25 15 -117h-219q-1 16 -6.5 44.5t-6.5 41.5q-68 -56 -128 -81t-140 -25q-113 0 -173 68.5t-60 178.5zM145 1233 l197 295h225l197 -295h-189l-120 182l-121 -182h-189zM299 268q0 -53 26.5 -76.5t80.5 -23.5q81 0 153 102v289q-150 -86 -205 -150.5t-55 -140.5z" />
<glyph unicode="&#xe3;" d="M70 227q0 176 116 289.5t373 210.5v66q0 141 -113 141q-73 0 -100.5 -39t-30.5 -117h-229q9 165 107 254.5t262 89.5q162 0 247.5 -75t85.5 -224v-706q0 -25 15 -117h-219q-1 16 -6.5 44.5t-6.5 41.5q-68 -56 -128 -81t-140 -25q-113 0 -173 68.5t-60 178.5zM121 1249 q48 242 211 242q44 0 133 -39q6 -3 29 -13.5t33 -14.5t28 -8.5t33 -4.5q46 0 65 22t21 68h114q-47 -241 -210 -241q-52 0 -134 40q-80 39 -122 39q-46 0 -65 -22t-21 -68h-115zM299 268q0 -53 26.5 -76.5t80.5 -23.5q81 0 153 102v289q-150 -86 -205 -150.5t-55 -140.5z" />
<glyph unicode="&#xe4;" d="M70 227q0 176 116 289.5t373 210.5v66q0 141 -113 141q-73 0 -100.5 -39t-30.5 -117h-229q9 165 107 254.5t262 89.5q162 0 247.5 -75t85.5 -224v-706q0 -25 15 -117h-219q-1 16 -6.5 44.5t-6.5 41.5q-68 -56 -128 -81t-140 -25q-113 0 -173 68.5t-60 178.5zM182 1257 v222h221v-222h-221zM299 268q0 -53 26.5 -76.5t80.5 -23.5q81 0 153 102v289q-150 -86 -205 -150.5t-55 -140.5zM506 1257v222h221v-222h-221z" />
<glyph unicode="&#xe5;" d="M70 227q0 176 116 289.5t373 210.5v66q0 141 -113 141q-73 0 -100.5 -39t-30.5 -117h-229q9 165 107 254.5t262 89.5q162 0 247.5 -75t85.5 -224v-706q0 -25 15 -117h-219q-1 16 -6.5 44.5t-6.5 41.5q-68 -56 -128 -81t-140 -25q-113 0 -173 68.5t-60 178.5zM246 1442 q0 86 61.5 147.5t147.5 61.5t147.5 -61.5t61.5 -147.5t-61.5 -147.5t-147.5 -61.5t-147.5 61.5t-61.5 147.5zM299 268q0 -53 26.5 -76.5t80.5 -23.5q81 0 153 102v289q-150 -86 -205 -150.5t-55 -140.5zM348 1442q0 -44 31.5 -75.5t75.5 -31.5t75 31.5t31 75.5t-31 75 t-75 31t-75.5 -31t-31.5 -75z" />
<glyph unicode="&#xe6;" horiz-adv-x="1366" d="M70 227q0 176 115.5 289.5t371.5 210.5v66q0 141 -111 141q-73 0 -100.5 -39t-30.5 -117h-229q9 163 102 253.5t234 90.5q179 0 264 -102q78 102 244 102q175 0 256.5 -108.5t81.5 -300.5v-205h-482v-160q0 -94 31 -137t94 -43q127 0 127 180v25h230q-7 -393 -357 -393 q-193 0 -278 143q-100 -89 -169.5 -116t-135.5 -27q-129 0 -193.5 67.5t-64.5 179.5zM299 268q0 -53 26.5 -76.5t80.5 -23.5q82 0 151 102v289q-149 -86 -203.5 -150.5t-54.5 -140.5zM786 696h252v58q0 180 -127 180q-63 0 -94 -43t-31 -137v-58z" />
<glyph unicode="&#xe7;" d="M98 389v324q0 409 357 409q349 0 356 -397h-229v29q0 180 -127 180t-127 -180v-406q0 -180 127 -180t127 180v70h229v-29q0 -375 -303 -407l-72 -105q28 4 43 4q75 -3 131 -43.5t56 -111.5q0 -94 -75.5 -151.5t-178.5 -57.5q-99 0 -203 47l35 102q27 -13 67 -24t66 -11 q53 0 87 24t34 60q0 39 -31.5 57.5t-70 17t-68.5 -14.5l-45 37l125 170q-310 25 -310 407z" />
<glyph unicode="&#xe8;" d="M98 389v324q0 409 357 409q356 0 356 -409v-205h-483v-160q0 -180 127 -180t127 180v25h229q-7 -393 -356 -393q-357 0 -357 409zM162 1528h276l162 -295h-170zM328 696h254v58q0 180 -127 180t-127 -180v-58z" />
<glyph unicode="&#xe9;" d="M98 389v324q0 409 357 409q356 0 356 -409v-205h-483v-160q0 -180 127 -180t127 180v25h229q-7 -393 -356 -393q-357 0 -357 409zM309 1233l162 295h277l-269 -295h-170zM328 696h254v58q0 180 -127 180t-127 -180v-58z" />
<glyph unicode="&#xea;" d="M98 389v324q0 409 357 409q356 0 356 -409v-205h-483v-160q0 -180 127 -180t127 180v25h229q-7 -393 -356 -393q-357 0 -357 409zM145 1233l197 295h225l197 -295h-189l-120 182l-121 -182h-189zM328 696h254v58q0 180 -127 180t-127 -180v-58z" />
<glyph unicode="&#xeb;" d="M98 389v324q0 409 357 409q356 0 356 -409v-205h-483v-160q0 -180 127 -180t127 180v25h229q-7 -393 -356 -393q-357 0 -357 409zM182 1257v222h221v-222h-221zM328 696h254v58q0 180 -127 180t-127 -180v-58zM506 1257v222h221v-222h-221z" />
<glyph unicode="&#xec;" horiz-adv-x="454" d="M-66 1528h277l162 -295h-170zM113 0v1102h229v-1102h-229z" />
<glyph unicode="&#xed;" horiz-adv-x="454" d="M82 1233l162 295h276l-268 -295h-170zM113 0v1102h229v-1102h-229z" />
<glyph unicode="&#xee;" horiz-adv-x="454" d="M-82 1233l197 295h225l197 -295h-189l-121 182l-121 -182h-188zM113 0v1102h229v-1102h-229z" />
<glyph unicode="&#xef;" horiz-adv-x="454" d="M-45 1257v222h221v-222h-221zM113 0v1102h229v-1102h-229zM279 1257v222h221v-222h-221z" />
<glyph unicode="&#xf0;" d="M98 356v287q0 377 357 377q17 0 75 -4q-7 70 -59 164l-215 -82l-55 147l190 72q-50 72 -96 113l176 49q49 -35 96 -95l224 86l61 -143l-195 -76q71 -126 112.5 -283t41.5 -325v-287q0 -376 -356 -376q-357 0 -357 376zM328 334q0 -166 127 -166t127 166v332 q0 165 -127 165t-127 -165v-332z" />
<glyph unicode="&#xf1;" d="M111 0v1102h217v-111q85 73 116 91q67 40 162 40q90 0 141.5 -61.5t51.5 -169.5v-891h-230v854q0 40 -22 60t-60 20q-33 0 -66 -17t-81 -53v-864h-229zM121 1249q48 242 211 242q44 0 133 -39q6 -3 29 -13.5t33 -14.5t28 -8.5t33 -4.5q46 0 65 22t21 68h114 q-47 -241 -210 -241q-52 0 -134 40q-80 39 -122 39q-46 0 -65 -22t-21 -68h-115z" />
<glyph unicode="&#xf2;" d="M98 389v324q0 409 357 409q356 0 356 -409v-324q0 -409 -356 -409q-357 0 -357 409zM162 1528h276l162 -295h-170zM328 348q0 -180 127 -180t127 180v406q0 180 -127 180t-127 -180v-406z" />
<glyph unicode="&#xf3;" d="M98 389v324q0 409 357 409q356 0 356 -409v-324q0 -409 -356 -409q-357 0 -357 409zM309 1233l162 295h277l-269 -295h-170zM328 348q0 -180 127 -180t127 180v406q0 180 -127 180t-127 -180v-406z" />
<glyph unicode="&#xf4;" d="M98 389v324q0 409 357 409q356 0 356 -409v-324q0 -409 -356 -409q-357 0 -357 409zM145 1233l197 295h225l197 -295h-189l-120 182l-121 -182h-189zM328 348q0 -180 127 -180t127 180v406q0 180 -127 180t-127 -180v-406z" />
<glyph unicode="&#xf5;" d="M98 389v324q0 409 357 409q356 0 356 -409v-324q0 -409 -356 -409q-357 0 -357 409zM121 1249q48 242 211 242q44 0 133 -39q6 -3 29 -13.5t33 -14.5t28 -8.5t33 -4.5q46 0 65 22t21 68h114q-47 -241 -210 -241q-52 0 -134 40q-80 39 -122 39q-46 0 -65 -22t-21 -68h-115 zM328 348q0 -180 127 -180t127 180v406q0 180 -127 180t-127 -180v-406z" />
<glyph unicode="&#xf6;" d="M98 389v324q0 409 357 409q356 0 356 -409v-324q0 -409 -356 -409q-357 0 -357 409zM182 1257v222h221v-222h-221zM328 348q0 -180 127 -180t127 180v406q0 180 -127 180t-127 -180v-406zM506 1257v222h221v-222h-221z" />
<glyph unicode="&#xf7;" horiz-adv-x="1228" d="M96 418v200h1037v-200h-1037zM451 94q0 68 48 116t115 48q68 0 116 -48t48 -116t-48 -116t-116 -48q-67 0 -115 48t-48 116zM451 942q0 68 48 116t115 48q68 0 116 -48t48 -116t-48 -116t-116 -48q-67 0 -115 48t-48 116z" />
<glyph unicode="&#xf8;" d="M86 -246l119 314q-107 104 -107 321v324q0 409 357 409q77 0 145 -22l84 223h139l-110 -293q98 -104 98 -317v-324q0 -409 -356 -409q-81 0 -142 22l-92 -248h-135zM328 354h4l205 551q-29 29 -82 29q-127 0 -127 -180v-400zM377 193q36 -25 78 -25q127 0 127 180v375h-4 z" />
<glyph unicode="&#xf9;" d="M111 211v891h229v-854q0 -40 22 -60t60 -20q33 0 66 17t81 53v864h230v-1102h-217v111q-5 -4 -14 -12q-42 -36 -62.5 -51.5t-54 -34.5t-68 -26t-80.5 -7q-90 0 -141 61.5t-51 169.5zM162 1528h276l162 -295h-170z" />
<glyph unicode="&#xfa;" d="M111 211v891h229v-854q0 -40 22 -60t60 -20q33 0 66 17t81 53v864h230v-1102h-217v111q-5 -4 -14 -12q-42 -36 -62.5 -51.5t-54 -34.5t-68 -26t-80.5 -7q-90 0 -141 61.5t-51 169.5zM309 1233l162 295h277l-269 -295h-170z" />
<glyph unicode="&#xfb;" d="M111 211v891h229v-854q0 -40 22 -60t60 -20q33 0 66 17t81 53v864h230v-1102h-217v111q-5 -4 -14 -12q-42 -36 -62.5 -51.5t-54 -34.5t-68 -26t-80.5 -7q-90 0 -141 61.5t-51 169.5zM145 1233l197 295h225l197 -295h-189l-120 182l-121 -182h-189z" />
<glyph unicode="&#xfc;" d="M111 211v891h229v-854q0 -40 22 -60t60 -20q33 0 66 17t81 53v864h230v-1102h-217v111q-5 -4 -14 -12q-42 -36 -62.5 -51.5t-54 -34.5t-68 -26t-80.5 -7q-90 0 -141 61.5t-51 169.5zM182 1257v222h221v-222h-221zM506 1257v222h221v-222h-221z" />
<glyph unicode="&#xfd;" horiz-adv-x="796" d="M20 1102h234l147 -705h5l139 705h231l-289 -1184q-36 -147 -108.5 -205.5t-204.5 -58.5h-96v188h55q83 0 117.5 43.5t34.5 134.5q0 51 -25 146zM254 1233l162 295h276l-268 -295h-170z" />
<glyph unicode="&#xfe;" d="M111 -348v1827h229v-482h4q50 68 100.5 96.5t133.5 28.5q109 0 171 -79.5t62 -227.5v-528q0 -148 -62 -227.5t-171 -79.5q-48 0 -89 15.5t-67 34t-82 64.5v-442h-229zM340 225q78 -57 131 -57q52 0 81.5 38.5t29.5 139.5v410q0 101 -29.5 139.5t-81.5 38.5 q-53 0 -131 -57v-652z" />
<glyph unicode="&#xff;" horiz-adv-x="796" d="M20 1102h234l147 -705h5l139 705h231l-289 -1184q-36 -147 -108.5 -205.5t-204.5 -58.5h-96v188h55q83 0 117.5 43.5t34.5 134.5q0 51 -25 146zM127 1257v222h221v-222h-221zM451 1257v222h221v-222h-221z" />
<glyph unicode="&#x152;" horiz-adv-x="1478" d="M123 451v577q0 219 109.5 335t320.5 116h819v-222h-442v-380h344v-222h-344v-434h471v-221h-848q-211 0 -320.5 116t-109.5 335zM377 420q0 -91 38.5 -143t119.5 -52q141 0 141 154v727q0 154 -141 154q-81 0 -119.5 -52t-38.5 -143v-645z" />
<glyph unicode="&#x153;" horiz-adv-x="1366" d="M98 389v324q0 191 80.5 300t251.5 109q104 0 166.5 -30.5t95.5 -94.5q73 125 244 125t251.5 -109t80.5 -300v-205h-469v-160q0 -96 25.5 -138t86.5 -42q127 0 127 180v25h230q-3 -184 -84.5 -288.5t-247.5 -104.5q-177 0 -248 126q-68 -126 -258 -126q-171 0 -251.5 109 t-80.5 300zM328 348q0 -180 127 -180q114 0 114 180v406q0 180 -114 180q-127 0 -127 -180v-406zM799 696h239v58q0 180 -127 180q-61 0 -86.5 -42t-25.5 -138v-58z" />
<glyph unicode="&#x178;" d="M20 1479h259l178 -564h4l170 564h258l-307 -865v-614h-254v614zM182 1581v221h221v-221h-221zM506 1581v221h221v-221h-221z" />
<glyph unicode="&#x2c6;" horiz-adv-x="454" d="M-82 1233l197 295h225l197 -295h-189l-121 182l-121 -182h-188z" />
<glyph unicode="&#x2dc;" horiz-adv-x="454" d="M-106 1249q48 242 210 242q45 0 134 -39q7 -3 29 -13.5t32.5 -14.5t28 -8.5t32.5 -4.5q46 0 65 22t21 68h115q-47 -241 -211 -241q-51 0 -133 40q-80 39 -123 39q-46 0 -65 -22t-21 -68h-114z" />
<glyph unicode="&#x2000;" horiz-adv-x="987" />
<glyph unicode="&#x2001;" horiz-adv-x="1974" />
<glyph unicode="&#x2002;" horiz-adv-x="987" />
<glyph unicode="&#x2003;" horiz-adv-x="1974" />
<glyph unicode="&#x2004;" horiz-adv-x="658" />
<glyph unicode="&#x2005;" horiz-adv-x="493" />
<glyph unicode="&#x2006;" horiz-adv-x="329" />
<glyph unicode="&#x2007;" horiz-adv-x="329" />
<glyph unicode="&#x2008;" horiz-adv-x="246" />
<glyph unicode="&#x2009;" horiz-adv-x="394" />
<glyph unicode="&#x200a;" horiz-adv-x="109" />
<glyph unicode="&#x2010;" horiz-adv-x="681" d="M90 457v188h502v-188h-502z" />
<glyph unicode="&#x2011;" horiz-adv-x="681" d="M90 457v188h502v-188h-502z" />
<glyph unicode="&#x2012;" horiz-adv-x="681" d="M90 457v188h502v-188h-502z" />
<glyph unicode="&#x2013;" horiz-adv-x="1024" d="M0 477v148h1024v-148h-1024z" />
<glyph unicode="&#x2014;" horiz-adv-x="2048" d="M0 477v148h2048v-148h-2048z" />
<glyph unicode="&#x2018;" horiz-adv-x="454" d="M106 1004v241l142 254h108l-100 -254h92v-241h-242z" />
<glyph unicode="&#x2019;" horiz-adv-x="454" d="M98 983l101 254h-93v242h242v-242l-141 -254h-109z" />
<glyph unicode="&#x201a;" horiz-adv-x="454" d="M98 -254l101 254h-93v242h242v-242l-141 -254h-109z" />
<glyph unicode="&#x201c;" d="M143 1004v241l142 254h108l-100 -254h92v-241h-242zM522 1004v241l142 254h108l-100 -254h92v-241h-242z" />
<glyph unicode="&#x201d;" d="M137 983l101 254h-93v242h242v-242l-141 -254h-109zM516 983l100 254h-92v242h242v-242l-141 -254h-109z" />
<glyph unicode="&#x201e;" d="M137 -254l101 254h-93v242h242v-242l-141 -254h-109zM516 -254l100 254h-92v242h242v-242l-141 -254h-109z" />
<glyph unicode="&#x2022;" horiz-adv-x="1024" d="M141 739q0 154 107.5 261.5t261.5 107.5t262.5 -107.5t108.5 -261.5t-108.5 -262t-262.5 -108t-261.5 108t-107.5 262z" />
<glyph unicode="&#x2026;" horiz-adv-x="2048" d="M225 0v242h234v-242h-234zM907 0v242h234v-242h-234zM1589 0v242h234v-242h-234z" />
<glyph unicode="&#x202f;" horiz-adv-x="394" />
<glyph unicode="&#x2039;" horiz-adv-x="681" d="M129 553l236 313h202l-239 -315l233 -315h-196z" />
<glyph unicode="&#x203a;" horiz-adv-x="681" d="M115 866h202l236 -313l-236 -317h-196l233 315z" />
<glyph unicode="&#x205f;" horiz-adv-x="493" />
<glyph unicode="&#x20ac;" horiz-adv-x="1024" d="M86 473l47 172h76v164h-123l47 172h76v139q0 88 35 161t93.5 120t132.5 72.5t155 25.5q190 0 319 -117l-63 -233q-48 63 -113 96t-133 33q-75 0 -123.5 -41t-48.5 -123v-133h371l-48 -172h-323v-164h282l-47 -172h-235v-98q0 -88 49.5 -132t126.5 -44q144 0 242 90v-238 q-120 -71 -271 -71q-167 0 -284 103t-117 275v115h-123z" />
<glyph unicode="&#x2122;" horiz-adv-x="2027" d="M70 1325v154h688v-154h-246v-690h-197v690h-245zM866 635v844h279l211 -555l211 555h276v-844h-188v618h-4l-226 -618h-141l-225 618h-4v-618h-189z" />
<glyph unicode="&#xe000;" horiz-adv-x="1105" d="M0 0v1106h1106v-1106h-1106z" />
</font>
</defs>
</svg>
