<?xml version="1.0" standalone="no"?>
<!DOCTYPE svg PUBLIC "-//W3C//DTD SVG 1.1//EN" "http://www.w3.org/Graphics/SVG/1.1/DTD/svg11.dtd" >
<svg xmlns="http://www.w3.org/2000/svg">
<metadata></metadata>
<defs>
<font id="OpenSansLightRegular" horiz-adv-x="1169" >
<font-face units-per-em="2048" ascent="1638" descent="-410" />
<missing-glyph horiz-adv-x="532" />
<glyph unicode="&#xfb01;" horiz-adv-x="1077" d="M29 1001v58l202 37v84q0 200 73.5 293.5t240.5 93.5q90 0 180 -27l-23 -86q-80 25 -159 25q-116 0 -164.5 -68.5t-48.5 -222.5v-101h256v-86h-256v-1001h-99v1001h-202zM782 1388.5q0 96.5 64.5 96.5t64.5 -96q0 -45 -17.5 -71t-48.5 -26q-63 0 -63 96.5zM796 0v1087h99 v-1087h-99z" />
<glyph unicode="&#xfb02;" horiz-adv-x="1077" d="M29 1001v58l202 37v84q0 200 73.5 293.5t240.5 93.5q90 0 180 -27l-23 -86q-80 25 -159 25q-116 0 -164.5 -68.5t-48.5 -222.5v-101h256v-86h-256v-1001h-99v1001h-202zM796 0v1556h99v-1556h-99z" />
<glyph unicode="&#xfb03;" horiz-adv-x="1692" d="M29 1001v58l202 37v84q0 200 73.5 293.5t240.5 93.5q90 0 180 -27l-23 -86q-80 25 -159 25q-116 0 -164.5 -68.5t-48.5 -222.5v-101h256v-86h-256v-1001h-99v1001h-202zM643 1001v58l202 37v84q0 200 73.5 293.5t240.5 93.5q90 0 180 -27l-23 -86q-80 25 -159 25 q-116 0 -164.5 -68.5t-48.5 -222.5v-101h256v-86h-256v-1001h-99v1001h-202zM1397 1388.5q0 96.5 64.5 96.5t64.5 -96q0 -45 -17.5 -71t-48.5 -26q-63 0 -63 96.5zM1411 0v1087h99v-1087h-99z" />
<glyph unicode="&#xfb04;" horiz-adv-x="1692" d="M29 1001v58l202 37v84q0 200 73.5 293.5t240.5 93.5q90 0 180 -27l-23 -86q-80 25 -159 25q-116 0 -164.5 -68.5t-48.5 -222.5v-101h256v-86h-256v-1001h-99v1001h-202zM643 1001v58l202 37v84q0 200 73.5 293.5t240.5 93.5q90 0 180 -27l-23 -86q-80 25 -159 25 q-116 0 -164.5 -68.5t-48.5 -222.5v-101h256v-86h-256v-1001h-99v1001h-202zM1411 0v1556h99v-1556h-99z" />
<glyph horiz-adv-x="0" />
<glyph horiz-adv-x="2048" />
<glyph unicode="&#xd;" horiz-adv-x="1044" />
<glyph unicode=" "  horiz-adv-x="532" />
<glyph unicode="&#x09;" horiz-adv-x="532" />
<glyph unicode="&#xa0;" horiz-adv-x="532" />
<glyph unicode="!" horiz-adv-x="492" d="M164 78q0 98 81 98t81 -98t-81 -98t-81 98zM186 1462h119l-29 -1085h-61z" />
<glyph unicode="&#x22;" horiz-adv-x="723" d="M133 1462h127l-33 -528h-61zM463 1462h127l-33 -528h-61z" />
<glyph unicode="#" horiz-adv-x="1323" d="M55 451v79h299l76 398h-297v80h311l86 454h91l-89 -454h365l88 454h86l-88 -454h285v-80h-301l-76 -398h303v-79h-320l-86 -451h-90l88 451h-360l-86 -451h-88l86 451h-283zM440 530h363l78 398h-363z" />
<glyph unicode="$" d="M164 186v103q75 -36 179.5 -61t193.5 -25v508q-145 44 -215 88q-134 84 -134 250q0 124 94.5 208.5t254.5 104.5v192h81v-190q197 -9 351 -72l-33 -90q-141 62 -318 72v-486q213 -66 293 -144t80 -207.5t-99 -213.5t-274 -106v-236h-81v232q-92 2 -200.5 22.5 t-172.5 50.5zM297 1047.5q0 -84.5 57 -139.5t183 -93v453q-119 -16 -179.5 -76t-60.5 -144.5zM618 209q122 13 192.5 75t70.5 153.5t-63 147t-200 95.5v-471z" />
<glyph unicode="%" horiz-adv-x="1653" d="M113 1027.5q0 221.5 72 338.5t211.5 117t215.5 -120.5t76 -341.5t-75 -338.5t-212 -117.5t-212.5 120.5t-75.5 342zM211 1024q0 -371 186 -371q193 0 193 371t-193 371q-186 0 -186 -371zM373 0l811 1462h96l-811 -1462h-96zM965 441.5q0 221.5 73.5 337.5t211.5 116 t214 -120t76 -341.5t-74 -339t-212.5 -117.5t-213.5 121.5t-75 343zM1063 438q0 -370 186 -370q193 0 193 369.5t-193 369.5q-96 0 -141 -91.5t-45 -277.5z" />
<glyph unicode="&#x26;" horiz-adv-x="1460" d="M123 371q0 138 73.5 235t274.5 205l-75 82q-130 140 -130 282t95.5 226t253.5 84t248.5 -81t90.5 -224q0 -105 -70 -192.5t-253 -194.5l452 -457q119 140 179 358h96q-63 -246 -209 -426l266 -268h-135l-193 197q-92 -90 -164 -131q-148 -86 -354.5 -86t-326 103 t-119.5 288zM227 379q0 -147 93 -228t239.5 -81t253 43.5t209.5 146.5l-483 485q-136 -72 -197 -123q-115 -96 -115 -243zM373 1188q0 -91 40 -158t152 -174q159 85 221 159t62 168.5t-62 153t-172 58.5t-175.5 -58t-65.5 -149z" />
<glyph unicode="'" horiz-adv-x="393" d="M133 1462h127l-33 -528h-61z" />
<glyph unicode="(" horiz-adv-x="557" d="M82 563q0 263 77.5 494t223.5 405h113q-148 -182 -227 -412.5t-79 -486.5q0 -483 304 -887h-111q-147 170 -224 397t-77 490z" />
<glyph unicode=")" horiz-adv-x="557" d="M61 1462h113q147 -175 224 -406.5t77 -494.5t-77.5 -490t-223.5 -395h-111q304 404 304 887q0 257 -79 487.5t-227 411.5z" />
<glyph unicode="*" horiz-adv-x="1128" d="M104 1124l19 131l401 -104l-39 405h146l-37 -405l405 104l21 -131l-395 -39l247 -340l-124 -71l-191 379l-180 -379l-125 71l242 340z" />
<glyph unicode="+" d="M111 682v82h432v434h82v-434h434v-82h-434v-432h-82v432h-432z" />
<glyph unicode="," horiz-adv-x="440" d="M68 -264q77 275 110 502h117l12 -21q-75 -265 -174 -481h-65z" />
<glyph unicode="-" horiz-adv-x="659" d="M92 512v82h475v-82h-475z" />
<glyph unicode="." horiz-adv-x="487" d="M162 78q0 98 81 98t81 -98t-81 -98t-81 98z" />
<glyph unicode="/" horiz-adv-x="698" d="M25 0l544 1462h105l-545 -1462h-104z" />
<glyph unicode="0" d="M115 739q0 378 115.5 562t349 184t354.5 -190.5t121 -567.5q0 -747 -473 -747q-229 0 -348 190.5t-119 568.5zM223 727q0 -657 359 -657q189 0 275.5 168t86.5 494.5t-86.5 494.5t-275.5 168t-274 -168t-85 -500z" />
<glyph unicode="1" d="M199 1165l397 297h86v-1462h-98v1065q0 145 12 301q-15 -15 -31 -29t-309 -243z" />
<glyph unicode="2" d="M113 0v88l389 406q164 170 230 260q128 175 128 344q0 131 -86 213t-223 82q-183 0 -350 -133l-54 69q183 154 390 154t316.5 -102t109.5 -264t-73.5 -297.5t-268.5 -334.5l-375 -385v-4h782v-96h-915z" />
<glyph unicode="3" d="M94 63v99q84 -44 188.5 -69t196.5 -25q221 0 332 89.5t111 243.5q0 310 -447 310h-158v96h160q182 0 288.5 86.5t106.5 221.5t-86.5 208.5t-211 73.5t-214.5 -30.5t-202 -104.5l-49 67q85 71 205 112.5t243 41.5q202 0 312 -95.5t110 -269.5q0 -136 -85.5 -229 t-229.5 -119v-6q176 -22 268 -112t92 -242q0 -205 -139.5 -317.5t-382 -112.5t-408.5 83z" />
<glyph unicode="4" d="M43 373v67l725 1030h121v-1011h252v-86h-252v-373h-94v373h-752zM162 459h633v418q0 302 14 507h-8q-20 -37 -123 -188z" />
<glyph unicode="5" d="M143 63v103q108 -55 192 -76.5t179 -21.5q192 0 308 101.5t116 269.5t-113 261t-307 93q-130 0 -272 -39l-60 39l58 669h704v-96h-610l-45 -516q156 29 244 29q234 0 368.5 -113t134.5 -324.5t-140 -336.5t-380 -125t-377 83z" />
<glyph unicode="6" d="M131 613.5q0 294.5 77 488.5q153 383 564 383q94 0 172 -23v-88q-73 27 -176 27q-247 0 -384.5 -178t-154.5 -518h13q154 198 370 198t331.5 -117t115.5 -332t-121.5 -344.5t-335.5 -129.5t-342.5 169.5t-128.5 464zM240 487.5q0 -94.5 49.5 -197t134 -162.5t186.5 -60 q164 0 255 103t91 282.5t-90 273.5t-245 94q-102 0 -189.5 -45t-139.5 -119.5t-52 -169z" />
<glyph unicode="7" d="M109 1366v96h946v-73l-604 -1389h-117l602 1366h-827z" />
<glyph unicode="8" d="M121 375q0 262 340 399q-161 76 -227 160.5t-66 196t53 191t148.5 122.5t212.5 43q186 0 299.5 -95t113.5 -257q0 -112 -70.5 -198t-228.5 -159q192 -79 270 -173t78 -228q0 -181 -126.5 -289t-343.5 -108t-335 101t-118 294zM223 356q0 -134 93.5 -210t259.5 -76 t266 80.5t100 211.5t-78.5 208.5t-302.5 162.5q-184 -71 -261 -157t-77 -220zM268 1137q0 -131 122 -221q60 -43 200 -101q163 63 234 139t71 189.5t-84.5 183.5t-228 70t-229 -69.5t-85.5 -190.5z" />
<glyph unicode="9" d="M111 1000q0 213 124.5 349t323.5 136q144 0 252 -75.5t166.5 -221.5t58.5 -390t-76 -438q-147 -380 -569 -380q-104 0 -192 26v86q89 -29 196 -29q247 0 387 178.5t156 520.5h-12q-73 -96 -174 -147.5t-211 -51.5q-203 0 -316.5 112t-113.5 325zM213 1004.5 q0 -179.5 87 -269.5t249 -90q101 0 188.5 45t139 119.5t51.5 171.5t-46.5 199t-130 159.5t-192.5 57.5q-158 0 -252 -106.5t-94 -286z" />
<glyph unicode=":" horiz-adv-x="487" d="M162 78q0 98 81 98t81 -98t-81 -98t-81 98zM162 971q0 98 81 98t81 -98q0 -53 -23.5 -76t-58 -23t-57.5 23t-23 76z" />
<glyph unicode=";" horiz-adv-x="487" d="M76 -264q75 252 110 502h117l12 -21q-75 -265 -174 -481h-65zM162 971q0 98 81 98t81 -98q0 -53 -23.5 -76t-58 -23t-57.5 23t-23 76z" />
<glyph unicode="&#x3c;" d="M111 682v61l948 474v-95l-823 -405l823 -355v-96z" />
<glyph unicode="=" d="M111 477v82h948v-82h-948zM111 885v82h948v-82h-948z" />
<glyph unicode="&#x3e;" d="M111 266v96l823 355l-823 405v95l948 -474v-61z" />
<glyph unicode="?" horiz-adv-x="862" d="M57 1403q110 48 184.5 64t153.5 16q183 0 288 -98.5t105 -270.5q0 -168 -147 -298q-46 -40 -106 -90.5t-94.5 -95t-50 -93.5t-15.5 -146v-14h-82v37q0 123 37.5 201t138.5 167l91 79q72 61 103 121t31 138q0 127 -83.5 202t-224 75t-292.5 -74zM260 78q0 98 81 98t81 -98 t-81 -98t-81 98z" />
<glyph unicode="@" horiz-adv-x="1815" d="M113 561q0 256 108.5 460.5t307 317.5t431 113t398 -89t255 -254.5t89.5 -388.5t-90.5 -361t-245.5 -138q-89 0 -144.5 54t-64.5 147h-4q-86 -201 -313 -201q-148 0 -229 96.5t-81 284.5t120.5 316.5t314.5 128.5q138 0 286 -41l-22 -464v-30q0 -104 35 -156.5t116 -52.5 q103 0 168.5 116.5t65.5 307t-79 336.5t-225.5 224.5t-355.5 78.5t-384.5 -99.5t-270 -281.5t-94.5 -418q0 -322 167 -497.5t474 -175.5q190 0 420 88v-99q-203 -80 -414 -80q-349 0 -544 200.5t-195 557.5zM633 604.5q0 -157.5 55 -229.5t174 -72q255 0 273 346l16 291 q-79 27 -193 27q-149 0 -237 -102.5t-88 -260z" />
<glyph unicode="A" horiz-adv-x="1229" d="M0 0l588 1468h65l576 -1468h-115l-203 516h-594l-204 -516h-113zM354 608h523l-199 527q-25 62 -60 172q-27 -96 -59 -174z" />
<glyph unicode="B" horiz-adv-x="1284" d="M207 0v1462h401q271 0 398 -92t127 -278q0 -127 -77.5 -211.5t-226.5 -108.5v-6q175 -26 257.5 -110.5t82.5 -235.5q0 -202 -134 -311t-380 -109h-448zM309 90h344q406 0 406 330q0 301 -428 301h-322v-631zM309 811h322q206 0 299.5 68.5t93.5 214.5t-105.5 212 t-314.5 66h-295v-561z" />
<glyph unicode="C" horiz-adv-x="1272" d="M129 735q0 223 84.5 393t243 262.5t370.5 92.5t381 -80l-41 -92q-160 80 -336 80q-275 0 -433 -176t-158 -485.5t149 -482.5t426 -173q184 0 338 47v-90q-145 -51 -362 -51q-308 0 -485 199t-177 556z" />
<glyph unicode="D" horiz-adv-x="1446" d="M207 0v1462h395q350 0 532.5 -183t182.5 -542.5t-193 -548t-567 -188.5h-350zM309 90h242q655 0 655 651q0 314 -159.5 472.5t-468.5 158.5h-269v-1282z" />
<glyph unicode="E" horiz-adv-x="1130" d="M207 0v1462h799v-94h-697v-553h658v-94h-658v-627h697v-94h-799z" />
<glyph unicode="F" horiz-adv-x="1028" d="M207 0v1462h801v-94h-699v-620h660v-95h-660v-653h-102z" />
<glyph unicode="G" horiz-adv-x="1481" d="M129 729q0 223 91.5 395.5t262 266.5t400.5 94t420 -88l-41 -92q-190 88 -394 88q-289 0 -458.5 -178.5t-169.5 -495t161 -483t473 -166.5q202 0 343 57v514h-435v96h539v-667q-212 -90 -477 -90q-346 0 -530.5 195.5t-184.5 553.5z" />
<glyph unicode="H" horiz-adv-x="1473" d="M207 0v1462h102v-649h854v649h103v-1462h-103v719h-854v-719h-102z" />
<glyph unicode="I" horiz-adv-x="516" d="M207 0v1462h102v-1462h-102z" />
<glyph unicode="J" horiz-adv-x="506" d="M-184 -254q78 -20 149 -20q242 0 242 264v1472h102v-1462q0 -369 -342 -369q-92 0 -151 27v88z" />
<glyph unicode="K" horiz-adv-x="1190" d="M207 0v1462h102v-760l162 162l573 598h130l-599 -618l615 -844h-125l-561 772l-195 -172v-600h-102z" />
<glyph unicode="L" horiz-adv-x="1051" d="M207 0v1462h102v-1366h697v-96h-799z" />
<glyph unicode="M" horiz-adv-x="1767" d="M207 0v1462h158l518 -1286h6l518 1286h154v-1462h-103v1108q0 116 12 240h-8l-547 -1348h-65l-545 1350h-8q8 -124 8 -254v-1096h-98z" />
<glyph unicode="N" horiz-adv-x="1477" d="M207 0v1462h102l865 -1296h6q-9 180 -9 342v954h99v-1462h-103l-866 1298h-8q12 -232 12 -350v-948h-98z" />
<glyph unicode="O" horiz-adv-x="1565" d="M129 734.5q0 349.5 175.5 550t480.5 200.5t478 -201.5t173 -550t-174 -551t-479.5 -202.5t-479.5 202.5t-174 552zM240 732.5q0 -313.5 140 -485t403 -171.5t402.5 170t139.5 486.5t-139.5 485t-401 168.5t-403 -170t-141.5 -483.5z" />
<glyph unicode="P" horiz-adv-x="1198" d="M207 0v1462h358q522 0 522 -420q0 -212 -144 -325t-408 -113h-226v-604h-102zM309 692h201q247 0 357 81.5t110 257.5t-104 257.5t-322 81.5h-242v-678z" />
<glyph unicode="Q" horiz-adv-x="1565" d="M129 734.5q0 349.5 175.5 550t480.5 200.5t478 -201.5t173 -550.5q0 -294 -126 -486.5t-349 -246.5l333 -348h-166l-282 330l-33 -2h-31q-305 0 -479 202.5t-174 552zM240 732.5q0 -313.5 140 -485t403 -171.5t402.5 170t139.5 486.5t-139.5 485t-401 168.5t-403 -170 t-141.5 -483.5z" />
<glyph unicode="R" horiz-adv-x="1217" d="M207 0v1462h348q272 0 402 -100.5t130 -302.5q0 -306 -313 -393l397 -666h-122l-377 637h-363v-637h-102zM309 725h279q185 0 287 82.5t102 246.5t-100 240t-326 76h-242v-645z" />
<glyph unicode="S" horiz-adv-x="1116" d="M111 39v102q158 -67 403 -67q180 0 285.5 82.5t105.5 216.5q0 83 -35 137.5t-114 99.5t-267.5 109.5t-274 154t-85.5 246t128.5 260t332.5 103.5t385 -78l-37 -88q-182 76 -346 76t-260 -75t-96 -204q0 -81 29.5 -133t96.5 -93.5t234 -100t253 -114t125.5 -126 t39.5 -170.5q0 -183 -134.5 -290t-380 -107t-388.5 59z" />
<glyph unicode="T" horiz-adv-x="1073" d="M10 1366v96h1053v-96h-475v-1366h-103v1366h-475z" />
<glyph unicode="U" horiz-adv-x="1473" d="M190 520v942h103v-946q0 -211 117 -328.5t328.5 -117.5t326.5 115.5t115 320.5v956h102v-946q0 -252 -146 -394t-403.5 -142t-400 142.5t-142.5 397.5z" />
<glyph unicode="V" horiz-adv-x="1182" d="M0 1462h109l368 -995q84 -225 113 -338q20 75 79 233l402 1100h111l-547 -1462h-90z" />
<glyph unicode="W" horiz-adv-x="1827" d="M51 1462h107l256 -942q15 -57 28 -105.5t24 -90.5q21 -87 34 -162q24 136 102 413l250 887h113l293 -1018q51 -176 73 -284q13 72 33.5 153t308.5 1149h103l-404 -1462h-84l-321 1128q-40 139 -60 228q-16 -87 -45.5 -200t-322.5 -1156h-86z" />
<glyph unicode="X" horiz-adv-x="1102" d="M0 0l492 762l-447 700h115l395 -626l401 626h109l-453 -698l490 -764h-117l-432 682l-440 -682h-113z" />
<glyph unicode="Y" horiz-adv-x="1081" d="M0 1462h117l426 -800l428 800h110l-487 -897v-565h-105v557z" />
<glyph unicode="Z" horiz-adv-x="1180" d="M82 0v76l856 1290h-817v96h954v-76l-858 -1290h881v-96h-1016z" />
<glyph unicode="[" horiz-adv-x="653" d="M174 -324v1786h428v-94h-330v-1597h330v-95h-428z" />
<glyph unicode="\" horiz-adv-x="698" d="M25 1462h102l547 -1462h-103z" />
<glyph unicode="]" horiz-adv-x="653" d="M51 -229h330v1597h-330v94h428v-1786h-428v95z" />
<glyph unicode="^" d="M88 561l465 912h68l460 -912h-100l-395 791l-398 -791h-100z" />
<glyph unicode="_" horiz-adv-x="842" d="M-4 -184h850v-82h-850v82z" />
<glyph unicode="`" horiz-adv-x="1182" d="M393 1552v17h142q26 -48 98.5 -142t142.5 -170v-16h-69q-96 79 -188.5 171.5t-125.5 139.5z" />
<glyph unicode="a" horiz-adv-x="1085" d="M98 296q0 152 132.5 240t383.5 93l207 6v72q0 155 -63 234t-208.5 79t-307.5 -84l-37 86q179 84 356 84t265.5 -93t88.5 -290v-723h-73l-25 172h-8q-82 -105 -168.5 -148.5t-225.5 -43.5t-228 82t-89 234zM203 298q0 -115 62.5 -171.5t176.5 -56.5q174 0 274.5 99.5 t100.5 276.5v107l-190 -8q-229 -11 -326.5 -71.5t-97.5 -175.5z" />
<glyph unicode="b" horiz-adv-x="1219" d="M182 0v1556h99v-391q0 -88 -4 -162l-3 -85h7q120 190 354 190q465 0 465 -563q0 -271 -121.5 -418t-341.5 -147q-116 0 -209 48t-147 136h-9l-28 -164h-62zM281 528q0 -246 86.5 -353t267 -107t270.5 124.5t90 354.5q0 471 -356 471q-192 0 -275 -110t-83 -363v-17z" />
<glyph unicode="c" horiz-adv-x="973" d="M119 540.5q0 266.5 137 417t375 150.5q141 0 270 -49l-27 -88q-141 47 -245 47q-200 0 -303 -123.5t-103 -349.5t103 -350.5t288 -124.5q148 0 275 53v-92q-104 -51 -273 -51q-233 0 -365 147t-132 413.5z" />
<glyph unicode="d" horiz-adv-x="1219" d="M119 535q0 275 118 424t343 149q118 0 204 -43t154 -147h6q-6 126 -6 247v391h98v-1556h-65l-25 166h-8q-124 -186 -352.5 -186t-347.5 140t-119 415zM223 530q0 -462 359 -462q184 0 270 107t86 353v17q0 252 -84.5 362.5t-267.5 110.5q-363 0 -363 -488z" />
<glyph unicode="e" horiz-adv-x="1124" d="M119 533.5q0 261.5 128 418t332.5 156.5t315.5 -134t111 -364v-80h-783q2 -224 104.5 -342t293.5 -118q93 0 163.5 13t178.5 56v-90q-159 -69 -342 -69q-237 0 -369.5 146t-132.5 407.5zM229 618h672q0 189 -82 295.5t-233 106.5t-246 -103.5t-111 -298.5z" />
<glyph unicode="f" horiz-adv-x="614" d="M29 1001v58l202 37v84q0 200 73.5 293.5t240.5 93.5q90 0 180 -27l-23 -86q-80 25 -159 25q-116 0 -164.5 -68.5t-48.5 -222.5v-101h256v-86h-256v-1001h-99v1001h-202z" />
<glyph unicode="g" horiz-adv-x="1071" d="M45 -193q0 112 69.5 186t188.5 101q-49 21 -78.5 59.5t-29.5 88.5q0 109 139 192q-95 39 -148 122.5t-53 191.5q0 163 103.5 261.5t279.5 98.5q107 0 166 -21h348v-69l-225 -14q90 -112 90 -257.5t-104.5 -243t-280.5 -97.5q-74 0 -104 6q-121 -64 -121 -162 q0 -52 39.5 -76t132.5 -24h190q177 0 271 -71.5t94 -211.5q0 -172 -139.5 -265.5t-371 -93.5t-344 79t-112.5 220zM150 -184q0 -224 333 -224q428 0 428 273q0 98 -67 142t-217 44h-178q-299 0 -299 -235zM233 751.5q0 -129.5 76.5 -199t208.5 -69.5t204.5 69t72.5 204 t-74.5 204.5t-206.5 69.5t-206.5 -74.5t-74.5 -204z" />
<glyph unicode="h" horiz-adv-x="1208" d="M182 0v1556h99v-495l-5 -139h7q61 98 154 142t231 44q370 0 370 -397v-711h-98v705q0 164 -69 238.5t-214 74.5q-195 0 -285.5 -98.5t-90.5 -319.5v-600h-99z" />
<glyph unicode="i" horiz-adv-x="463" d="M168 1388.5q0 96.5 64.5 96.5t64.5 -96q0 -45 -17.5 -71t-48.5 -26q-63 0 -63 96.5zM182 0v1087h99v-1087h-99z" />
<glyph unicode="j" horiz-adv-x="463" d="M-98 -381q69 -20 129 -20q151 0 151 176v1312h99v-1298q0 -135 -63.5 -208t-180.5 -73q-80 0 -135 25v86zM168 1388.5q0 96.5 64.5 96.5t64.5 -96q0 -45 -17.5 -71t-48.5 -26q-63 0 -63 96.5z" />
<glyph unicode="k" horiz-adv-x="991" d="M182 0v1556h99v-780l-7 -299h5l555 610h120l-428 -464l465 -623h-119l-413 549l-178 -162v-387h-99z" />
<glyph unicode="l" horiz-adv-x="463" d="M182 0v1556h99v-1556h-99z" />
<glyph unicode="m" horiz-adv-x="1808" d="M182 0v1087h82l21 -149h6q45 81 128 125.5t183 44.5q257 0 330 -193h4q53 93 142.5 143t203.5 50q178 0 267 -95t89 -302v-711h-98v713q0 159 -62 232t-210 73q-307 0 -307 -381v-637h-101v743q0 275 -252 275q-171 0 -249 -99.5t-78 -318.5v-600h-99z" />
<glyph unicode="n" horiz-adv-x="1208" d="M182 0v1087h84l19 -149h6q106 170 377 170q370 0 370 -397v-711h-98v705q0 164 -69 238.5t-214 74.5q-195 0 -285.5 -98.5t-90.5 -319.5v-600h-99z" />
<glyph unicode="o" horiz-adv-x="1200" d="M119 545q0 266 129 414.5t353.5 148.5t352 -150.5t127.5 -414.5t-129 -413.5t-356 -149.5q-143 0 -252 69t-167 198t-58 298zM223 546q0 -225 98.5 -350.5t278.5 -125.5t278.5 125.5t98.5 350t-99.5 348.5t-279.5 124t-277.5 -123.5t-97.5 -348.5z" />
<glyph unicode="p" horiz-adv-x="1219" d="M182 -492v1579h84l19 -155h6q112 176 345 176t348.5 -144.5t115.5 -416.5t-121.5 -419.5t-331.5 -147.5q-251 0 -366 188h-7l3 -84q4 -74 4 -162v-414h-99zM281 541q0 -255 85.5 -364t265.5 -109t271.5 124t91.5 347q0 479 -346 479q-190 0 -279 -104.5t-89 -340.5v-32z " />
<glyph unicode="q" horiz-adv-x="1219" d="M119 535.5q0 271.5 118 422t346 150.5t345 -174h6l18 153h84v-1579h-98v414q0 122 6 248h-6q-118 -190 -369 -190q-214 0 -332 142t-118 413.5zM223 530q0 -462 363 -462q183 0 267.5 109t84.5 366v12q0 245 -85 354t-266 109t-272.5 -124t-91.5 -364z" />
<glyph unicode="r" horiz-adv-x="797" d="M182 0v1087h84l10 -196h7q67 120 143 168.5t164.5 48.5t167.5 -14l-19 -95q-68 17 -141 17q-139 0 -228 -118t-89 -298v-600h-99z" />
<glyph unicode="s" horiz-adv-x="954" d="M84 47v107q164 -82 335.5 -82t255 53.5t83.5 139t-66.5 141.5t-224 112.5t-223.5 99.5q-133 85 -133 216.5t102.5 202.5t282.5 71t338 -66l-37 -90q-160 66 -295 66t-213 -44t-78 -125.5t60.5 -132.5t222 -109t228.5 -101q134 -84 134 -226.5t-111 -221t-322 -78.5 t-339 67z" />
<glyph unicode="t" horiz-adv-x="686" d="M25 1001v58l161 45l50 246h51v-263h319v-86h-319v-688q0 -125 44 -185t138 -60t164 16v-80q-72 -24 -166 -24q-144 0 -212.5 77t-68.5 242v702h-161z" />
<glyph unicode="u" horiz-adv-x="1208" d="M170 377v710h98v-704q0 -164 69 -238.5t214 -74.5q194 0 285.5 98t91.5 319v600h98v-1087h-84l-18 150h-6q-106 -170 -377 -170q-371 0 -371 397z" />
<glyph unicode="v" horiz-adv-x="940" d="M0 1087h102l281 -739q56 -142 84 -248h6q41 136 84 250l281 737h102l-420 -1087h-100z" />
<glyph unicode="w" horiz-adv-x="1481" d="M31 1087h106l174 -630q61 -234 80 -344h6q59 234 86 311l224 663h90l213 -661q72 -235 88 -311h6q8 65 80 348l166 624h100l-295 -1087h-104l-238 727q-23 74 -59 217h-6l-66 -219l-242 -725h-98z" />
<glyph unicode="x" horiz-adv-x="1020" d="M55 0l394 559l-379 528h114l324 -458l321 458h109l-373 -528l400 -559h-115l-342 485l-344 -485h-109z" />
<glyph unicode="y" horiz-adv-x="940" d="M0 1087h102l230 -610q105 -281 133 -379h6q42 129 137 385l230 604h102l-487 -1263q-59 -154 -99 -208q-80 -108 -223 -108q-57 0 -127 21v86q58 -16 117 -16t98 24t71 75q39 63 126 302z" />
<glyph unicode="z" horiz-adv-x="944" d="M82 0v63l645 936h-598v88h727v-63l-649 -936h651v-88h-776z" />
<glyph unicode="{" horiz-adv-x="723" d="M61 528v80q122 2 176 51t54 148v350q0 299 360 305v-90q-138 -5 -200 -58t-62 -157v-305q0 -130 -44 -194t-142 -85v-8q97 -20 141.5 -83.5t44.5 -186.5v-322q0 -102 59.5 -152.5t202.5 -53.5v-91q-195 0 -277.5 75t-82.5 231v337q0 205 -230 209z" />
<glyph unicode="|" horiz-adv-x="1108" d="M508 -506v2067h92v-2067h-92z" />
<glyph unicode="}" horiz-adv-x="723" d="M72 -233q141 2 201.5 52.5t60.5 153.5v322q0 123 44.5 186.5t141.5 83.5v8q-97 20 -141.5 84t-44.5 195v305q0 103 -61.5 156.5t-200.5 58.5v90q174 0 267 -77.5t93 -227.5v-350q0 -100 54.5 -148.5t175.5 -50.5v-80q-230 -4 -230 -209v-337q0 -155 -82.5 -230.5 t-277.5 -75.5v91z" />
<glyph unicode="~" d="M111 625v94q108 110 233 110q61 0 115 -13.5t167.5 -64.5t212.5 -51t220 125v-96q-111 -113 -230.5 -113t-258.5 64.5t-242 64.5t-217 -120z" />
<glyph unicode="&#xa1;" horiz-adv-x="492" d="M166 1010q0 98 81 98t81 -98q0 -53 -23.5 -76t-58 -23t-57.5 23t-23 76zM186 -375l29 1086h61l29 -1086h-119z" />
<glyph unicode="&#xa2;" d="M211 743.5q0 233.5 102.5 383t288.5 182.5v174h82v-166h14q131 0 275 -55l-31 -84q-134 51 -237 51q-187 0 -288.5 -122.5t-101.5 -353t100.5 -355t280.5 -124.5q131 0 267 58v-92q-110 -56 -267 -56h-12v-204h-82v210q-186 30 -288.5 175t-102.5 378.5z" />
<glyph unicode="&#xa3;" d="M78 0v84q110 21 171.5 110t61.5 224v258h-211v82h211v297q0 204 98 315t277 111t334 -68l-35 -86q-157 66 -296.5 66t-208 -81t-68.5 -253v-301h411v-82h-411v-256q0 -233 -148 -324h809v-96h-995z" />
<glyph unicode="&#xa4;" d="M127 326l139 141q-90 106 -90 254.5t90 259.5l-139 141l59 60l138 -142q103 93 259 93t261 -93l137 142l59 -60l-139 -141q90 -111 90 -260t-90 -254l139 -141l-59 -60l-137 142q-110 -93 -261.5 -93t-258.5 93l-138 -142zM260 723q0 -136 94.5 -232t229 -96t229 95.5 t94.5 232t-95 233.5t-228.5 97t-228.5 -97t-95 -233z" />
<glyph unicode="&#xa5;" d="M43 1462h117l426 -796l428 796h110l-432 -788h283v-82h-338v-205h338v-82h-338v-305h-105v305h-337v82h337v205h-337v82h278z" />
<glyph unicode="&#xa6;" horiz-adv-x="1108" d="M508 258h92v-764h-92v764zM508 797v764h92v-764h-92z" />
<glyph unicode="&#xa7;" horiz-adv-x="1057" d="M129 63v95q182 -78 338 -78t241 49.5t85 140.5q0 55 -25 88q-46 60 -262.5 138.5t-288.5 147t-72 160.5t50.5 161.5t138.5 107.5q-86 47 -125 102t-39 136q0 117 101.5 183.5t276 66.5t335.5 -64l-35 -80q-161 60 -299 60t-209.5 -44.5t-71.5 -109t25.5 -99t85.5 -65.5 t220 -84.5t232 -122t72 -170.5q0 -173 -186 -274q86 -42 129 -96t43 -136q0 -135 -113 -207.5t-302 -72.5t-345 67zM246 828.5q0 -68.5 31.5 -107.5t105.5 -75t250 -99q82 41 126 98t44 120t-32 103t-108.5 77t-236.5 87q-81 -23 -130.5 -79t-49.5 -124.5z" />
<glyph unicode="&#xa8;" horiz-adv-x="1182" d="M336 1389q0 86 63.5 86t63.5 -86t-63.5 -86t-63.5 86zM717 1389q0 86 63.5 86t63.5 -86t-63.5 -86t-63.5 86z" />
<glyph unicode="&#xa9;" horiz-adv-x="1704" d="M100 732q0 199 100 374t275 276t376 101t376 -100t276 -275t101 -374.5t-97 -372.5t-272 -277t-382.5 -104t-382.5 103.5t-272.5 276.5t-97.5 372zM193 729.5q0 -176.5 88.5 -328t240.5 -240.5t330 -89t329.5 88.5t240.5 240.5t89 328t-85.5 327t-239 243t-332 92 t-331 -88.5t-241.5 -242.5t-89 -330.5zM489 721q0 212 111 336.5t297 124.5q119 0 227 -52l-37 -83q-98 45 -190 45q-142 0 -222.5 -94.5t-80.5 -264.5q0 -364 295 -364q84 0 198 43v-88q-102 -45 -208 -45q-187 0 -288.5 115t-101.5 327z" />
<glyph unicode="&#xaa;" horiz-adv-x="686" d="M78 994q0 190 321 206l95 4v43q0 77 -38 114.5t-115.5 37.5t-186.5 -49l-33 73q117 56 231 56q228 0 228 -215v-451h-68l-25 72q-84 -84 -190.5 -84t-162.5 49t-56 144zM168 1000q0 -61 35 -92t110.5 -31t128 50t52.5 142v64l-88 -5q-238 -12 -238 -128z" />
<glyph unicode="&#xab;" horiz-adv-x="885" d="M82 516v27l309 393l62 -43l-254 -363l254 -362l-62 -43zM442 516v27l310 393l61 -43l-254 -363l254 -362l-61 -43z" />
<glyph unicode="&#xac;" d="M111 682v82h927v-494h-82v412h-845z" />
<glyph unicode="&#xad;" horiz-adv-x="659" d="M92 512v82h475v-82h-475z" />
<glyph unicode="&#xae;" horiz-adv-x="1704" d="M100 732q0 199 100 374t275 276t376 101t376 -100t276 -275t101 -374.5t-97 -372.5t-272 -277t-382.5 -104t-382.5 103.5t-272.5 276.5t-97.5 372zM193 729.5q0 -176.5 88.5 -328t240.5 -240.5t330 -89t329.5 88.5t240.5 240.5t89 328t-85.5 327t-239 243t-332 92 t-331 -88.5t-241.5 -242.5t-89 -330.5zM608 291v880h211q301 0 301 -253q0 -164 -149 -234l237 -393h-121l-210 360h-168v-360h-101zM709 731h112q91 0 143 46.5t52 135.5q0 172 -197 172h-110v-354z" />
<glyph unicode="&#xaf;" horiz-adv-x="1024" d="M-6 1556v82h1036v-82h-1036z" />
<glyph unicode="&#xb0;" horiz-adv-x="877" d="M139 1183.5q0 132.5 86.5 216t212.5 83.5t212.5 -83.5t86.5 -215.5t-86.5 -215.5t-214.5 -83.5t-212.5 83t-84.5 215.5zM229 1183q0 -90 61 -153t147.5 -63t148 62t61.5 154.5t-60 155t-149.5 62.5t-149 -64t-59.5 -154z" />
<glyph unicode="&#xb1;" d="M111 1v82h948v-82h-948zM111 682v82h432v434h82v-434h434v-82h-434v-432h-82v432h-432z" />
<glyph unicode="&#xb2;" horiz-adv-x="688" d="M53 586v78l242 237q125 121 172 193t47 146t-46.5 115.5t-139 41.5t-201.5 -82l-49 65q119 103 256.5 103t207.5 -63.5t70 -174.5q0 -128 -122 -265q-41 -46 -308 -306h447v-88h-576z" />
<glyph unicode="&#xb3;" horiz-adv-x="688" d="M41 629v88q136 -62 258.5 -62t182 49t59.5 136q0 161 -238 161h-131v84h135q105 0 158 43.5t53 115.5t-47 112.5t-127 40.5q-128 0 -246 -78l-47 70q130 94 275 94t217.5 -60t72.5 -151q0 -170 -161 -219q186 -45 186 -211q0 -130 -88.5 -201.5t-240 -71.5t-271.5 60z " />
<glyph unicode="&#xb4;" horiz-adv-x="1182" d="M393 1241v16q73 79 144.5 171.5t97.5 140.5h141v-17q-81 -117 -313 -311h-70z" />
<glyph unicode="&#xb5;" horiz-adv-x="1221" d="M182 -492v1579h99v-704q0 -164 69 -238.5t213 -74.5q194 0 285.5 98t91.5 319v600h98v-1087h-84l-18 150h-6q-50 -77 -150 -123.5t-217 -46.5q-187 0 -287 112q5 -92 5 -170v-414h-99z" />
<glyph unicode="&#xb6;" horiz-adv-x="1341" d="M113 1046.5q0 255.5 109 382.5t341 127h543v-1816h-100v1722h-228v-1722h-100v819q-64 -18 -146 -18q-216 0 -317.5 125t-101.5 380.5z" />
<glyph unicode="&#xb7;" horiz-adv-x="487" d="M162 721q0 98 81 98t81 -98t-81 -98t-81 98z" />
<glyph unicode="&#xb8;" horiz-adv-x="420" d="M43 -393q30 -10 92 -10q160 0 160 108q0 94 -193 121l93 174h96l-66 -117q168 -37 168 -174q0 -100 -67.5 -150.5t-188.5 -50.5q-68 0 -94 11v88z" />
<glyph unicode="&#xb9;" horiz-adv-x="688" d="M76 1298l274 164h92v-876h-98v547q0 99 12 233q-26 -23 -233 -145z" />
<glyph unicode="&#xba;" horiz-adv-x="739" d="M70 1138q0 165 78 253t221.5 88t222 -87t78.5 -249.5t-80 -252t-223 -89.5t-220 86t-77 251zM160 1141q0 -264 209 -264t209 264q0 131 -50 194.5t-159 63.5t-159 -63.5t-50 -194.5z" />
<glyph unicode="&#xbb;" horiz-adv-x="885" d="M72 168l254 362l-254 363l61 43l309 -391v-27l-309 -393zM432 168l254 362l-254 363l62 43l309 -391v-27l-309 -393z" />
<glyph unicode="&#xbc;" horiz-adv-x="1516" d="M59 1298l274 164h92v-876h-98v547q0 99 12 233q-26 -23 -233 -145zM243 0l811 1462h94l-811 -1462h-94zM760 242v60l407 581h96v-563h129v-78h-129v-241h-90v241h-413zM864 320h309v221q0 132 8 232q-12 -23 -317 -453z" />
<glyph unicode="&#xbd;" horiz-adv-x="1516" d="M11 1298l274 164h92v-876h-98v547q0 99 12 233q-26 -23 -233 -145zM168 0l811 1462h94l-811 -1462h-94zM827 1v78l242 237q125 121 172 193t47 146t-46.5 115.5t-139 41.5t-201.5 -82l-49 65q119 103 256.5 103t207.5 -63.5t70 -174.5q0 -128 -122 -265 q-41 -46 -308 -306h447v-88h-576z" />
<glyph unicode="&#xbe;" horiz-adv-x="1516" d="M41 629v88q136 -62 258.5 -62t182 49t59.5 136q0 161 -238 161h-131v84h135q105 0 158 43.5t53 115.5t-47 112.5t-127 40.5q-128 0 -246 -78l-47 70q130 94 275 94t217.5 -60t72.5 -151q0 -170 -161 -219q186 -45 186 -211q0 -130 -88.5 -201.5t-240 -71.5t-271.5 60z M395 0l811 1462h94l-811 -1462h-94zM863 242v60l407 581h96v-563h129v-78h-129v-241h-90v241h-413zM967 320h309v221q0 132 8 232q-12 -23 -317 -453z" />
<glyph unicode="&#xbf;" horiz-adv-x="862" d="M74 -27q0 128 78 226q39 48 137.5 130t133 127.5t49.5 94t15 145.5v15h82v-37q0 -125 -39.5 -204.5t-136.5 -164.5l-90 -79q-73 -61 -104 -120.5t-31 -138.5q0 -124 82 -200t214 -76t240 46l64 27l37 -79q-111 -48 -185.5 -64t-152.5 -16q-184 0 -288.5 99t-104.5 269z M440 1010q0 98 81 98t81 -98q0 -53 -23.5 -76t-58 -23t-57.5 23t-23 76z" />
<glyph unicode="&#xc0;" horiz-adv-x="1229" d="M0 0l588 1468h65l576 -1468h-115l-203 516h-594l-204 -516h-113zM337 1890v17h142q26 -48 98.5 -142t142.5 -170v-16h-69q-96 79 -188.5 171.5t-125.5 139.5zM354 608h523l-199 527q-25 62 -60 172q-27 -96 -59 -174z" />
<glyph unicode="&#xc1;" horiz-adv-x="1229" d="M0 0l588 1468h65l576 -1468h-115l-203 516h-594l-204 -516h-113zM354 608h523l-199 527q-25 62 -60 172q-27 -96 -59 -174zM504 1579v16q73 79 144.5 171.5t97.5 140.5h141v-17q-81 -117 -313 -311h-70z" />
<glyph unicode="&#xc2;" horiz-adv-x="1229" d="M0 0l588 1468h65l576 -1468h-115l-203 516h-594l-204 -516h-113zM328 1579v16q151 163 242 312h98q68 -120 242 -312v-16h-70q-122 101 -221 207q-108 -114 -221 -207h-70zM354 608h523l-199 527q-25 62 -60 172q-27 -96 -59 -174z" />
<glyph unicode="&#xc3;" horiz-adv-x="1229" d="M0 0l588 1468h65l576 -1468h-115l-203 516h-594l-204 -516h-113zM287 1581q10 111 63 174.5t137 63.5q48 0 88 -25t78 -56t70 -53t61 -22q93 0 125 156h76q-16 -116 -69 -177t-132 -61q-71 0 -176 90q-32 26 -62.5 46t-69.5 20q-84 0 -116 -156h-73zM354 608h523 l-199 527q-25 62 -60 172q-27 -96 -59 -174z" />
<glyph unicode="&#xc4;" horiz-adv-x="1229" d="M0 0l588 1468h65l576 -1468h-115l-203 516h-594l-204 -516h-113zM354 608h523l-199 527q-25 62 -60 172q-27 -96 -59 -174zM367 1727q0 86 63.5 86t63.5 -86t-63.5 -86t-63.5 86zM748 1727q0 86 63.5 86t63.5 -86t-63.5 -86t-63.5 86z" />
<glyph unicode="&#xc5;" horiz-adv-x="1229" d="M0 0l588 1468h65l576 -1468h-115l-203 516h-594l-204 -516h-113zM354 608h523l-199 527q-25 62 -60 172q-27 -96 -59 -174zM402 1608.5q0 95.5 60 154t157 58.5t157 -59t60 -154t-60 -153t-157 -58t-157 58t-60 153.5zM482 1608.5q0 -64.5 37.5 -102t99.5 -37.5 t99.5 37.5t37.5 102.5t-39 102.5t-99.5 37.5t-98 -38t-37.5 -102.5z" />
<glyph unicode="&#xc6;" horiz-adv-x="1653" d="M-2 0l653 1462h877v-94h-615v-553h576v-94h-576v-627h615v-94h-717v516h-475l-227 -516h-111zM377 608h434v760h-100z" />
<glyph unicode="&#xc7;" horiz-adv-x="1272" d="M129 735q0 223 84.5 393t243 262.5t370.5 92.5t381 -80l-41 -92q-160 80 -336 80q-275 0 -433 -176t-158 -485.5t149 -482.5t426 -173q184 0 338 47v-90q-145 -51 -362 -51q-308 0 -485 199t-177 556zM561 -393q30 -10 92 -10q160 0 160 108q0 94 -193 121l93 174h96 l-66 -117q168 -37 168 -174q0 -100 -67.5 -150.5t-188.5 -50.5q-68 0 -94 11v88z" />
<glyph unicode="&#xc8;" horiz-adv-x="1130" d="M207 0v1462h799v-94h-697v-553h658v-94h-658v-627h697v-94h-799zM314 1890v17h142q26 -48 98.5 -142t142.5 -170v-16h-69q-96 79 -188.5 171.5t-125.5 139.5z" />
<glyph unicode="&#xc9;" horiz-adv-x="1130" d="M207 0v1462h799v-94h-697v-553h658v-94h-658v-627h697v-94h-799zM463 1579v16q73 79 144.5 171.5t97.5 140.5h141v-17q-81 -117 -313 -311h-70z" />
<glyph unicode="&#xca;" horiz-adv-x="1130" d="M207 0v1462h799v-94h-697v-553h658v-94h-658v-627h697v-94h-799zM315 1579v16q151 163 242 312h98q68 -120 242 -312v-16h-70q-122 101 -221 207q-108 -114 -221 -207h-70z" />
<glyph unicode="&#xcb;" horiz-adv-x="1130" d="M207 0v1462h799v-94h-697v-553h658v-94h-658v-627h697v-94h-799zM354 1727q0 86 63.5 86t63.5 -86t-63.5 -86t-63.5 86zM735 1727q0 86 63.5 86t63.5 -86t-63.5 -86t-63.5 86z" />
<glyph unicode="&#xcc;" horiz-adv-x="516" d="M-63 1890v17h142q26 -48 98.5 -142t142.5 -170v-16h-69q-96 79 -188.5 171.5t-125.5 139.5zM207 0v1462h102v-1462h-102z" />
<glyph unicode="&#xcd;" horiz-adv-x="516" d="M191 1579v16q73 79 144.5 171.5t97.5 140.5h141v-17q-81 -117 -313 -311h-70zM207 0v1462h102v-1462h-102z" />
<glyph unicode="&#xce;" horiz-adv-x="516" d="M-32 1579v16q151 163 242 312h98q68 -120 242 -312v-16h-70q-122 101 -221 207q-108 -114 -221 -207h-70zM207 0v1462h102v-1462h-102z" />
<glyph unicode="&#xcf;" horiz-adv-x="516" d="M5 1727q0 86 63.5 86t63.5 -86t-63.5 -86t-63.5 86zM207 0v1462h102v-1462h-102zM386 1727q0 86 63.5 86t63.5 -86t-63.5 -86t-63.5 86z" />
<glyph unicode="&#xd0;" horiz-adv-x="1466" d="M47 678v94h160v690h395q350 0 532.5 -183t182.5 -542.5t-193 -548t-567 -188.5h-350v678h-160zM309 90h242q655 0 655 651q0 314 -159.5 472.5t-468.5 158.5h-269v-600h406v-94h-406v-588z" />
<glyph unicode="&#xd1;" horiz-adv-x="1477" d="M207 0v1462h102l865 -1296h6q-9 180 -9 342v954h99v-1462h-103l-866 1298h-8q12 -232 12 -350v-948h-98zM400 1581q10 111 63 174.5t137 63.5q48 0 88 -25t78 -56t70 -53t61 -22q93 0 125 156h76q-16 -116 -69 -177t-132 -61q-71 0 -176 90q-32 26 -62.5 46t-69.5 20 q-84 0 -116 -156h-73z" />
<glyph unicode="&#xd2;" horiz-adv-x="1565" d="M129 734.5q0 349.5 175.5 550t480.5 200.5t478 -201.5t173 -550t-174 -551t-479.5 -202.5t-479.5 202.5t-174 552zM240 732.5q0 -313.5 140 -485t403 -171.5t402.5 170t139.5 486.5t-139.5 485t-401 168.5t-403 -170t-141.5 -483.5zM502 1890v17h142q26 -48 98.5 -142 t142.5 -170v-16h-69q-96 79 -188.5 171.5t-125.5 139.5z" />
<glyph unicode="&#xd3;" horiz-adv-x="1565" d="M129 734.5q0 349.5 175.5 550t480.5 200.5t478 -201.5t173 -550t-174 -551t-479.5 -202.5t-479.5 202.5t-174 552zM240 732.5q0 -313.5 140 -485t403 -171.5t402.5 170t139.5 486.5t-139.5 485t-401 168.5t-403 -170t-141.5 -483.5zM686 1579v16q73 79 144.5 171.5 t97.5 140.5h141v-17q-81 -117 -313 -311h-70z" />
<glyph unicode="&#xd4;" horiz-adv-x="1565" d="M129 734.5q0 349.5 175.5 550t480.5 200.5t478 -201.5t173 -550t-174 -551t-479.5 -202.5t-479.5 202.5t-174 552zM240 732.5q0 -313.5 140 -485t403 -171.5t402.5 170t139.5 486.5t-139.5 485t-401 168.5t-403 -170t-141.5 -483.5zM492 1579v16q151 163 242 312h98 q68 -120 242 -312v-16h-70q-122 101 -221 207q-108 -114 -221 -207h-70z" />
<glyph unicode="&#xd5;" horiz-adv-x="1565" d="M129 734.5q0 349.5 175.5 550t480.5 200.5t478 -201.5t173 -550t-174 -551t-479.5 -202.5t-479.5 202.5t-174 552zM240 732.5q0 -313.5 140 -485t403 -171.5t402.5 170t139.5 486.5t-139.5 485t-401 168.5t-403 -170t-141.5 -483.5zM443 1581q10 111 63 174.5t137 63.5 q48 0 88 -25t78 -56t70 -53t61 -22q93 0 125 156h76q-16 -116 -69 -177t-132 -61q-71 0 -176 90q-32 26 -62.5 46t-69.5 20q-84 0 -116 -156h-73z" />
<glyph unicode="&#xd6;" horiz-adv-x="1565" d="M129 734.5q0 349.5 175.5 550t480.5 200.5t478 -201.5t173 -550t-174 -551t-479.5 -202.5t-479.5 202.5t-174 552zM240 732.5q0 -313.5 140 -485t403 -171.5t402.5 170t139.5 486.5t-139.5 485t-401 168.5t-403 -170t-141.5 -483.5zM529 1727q0 86 63.5 86t63.5 -86 t-63.5 -86t-63.5 86zM910 1727q0 86 63.5 86t63.5 -86t-63.5 -86t-63.5 86z" />
<glyph unicode="&#xd7;" d="M119 1130l57 58l408 -408l409 408l58 -58l-408 -407l406 -408l-58 -57l-407 408l-406 -408l-57 57l405 408z" />
<glyph unicode="&#xd8;" horiz-adv-x="1565" d="M129 725q0 359 175.5 559.5t479.5 200.5q232 0 392 -121l108 152l72 -60l-111 -153q191 -207 191 -562.5t-174 -558t-480 -202.5q-236 0 -395 120l-86 -120l-74 59l90 127q-188 200 -188 559zM240 733.5q0 -312.5 139 -483.5l739 1034q-133 102 -334 102 q-261 0 -402.5 -170t-141.5 -482.5zM444 182q133 -106 338 -106q264 0 403.5 170t139.5 486t-139 487z" />
<glyph unicode="&#xd9;" horiz-adv-x="1473" d="M190 520v942h103v-946q0 -211 117 -328.5t328.5 -117.5t326.5 115.5t115 320.5v956h102v-946q0 -252 -146 -394t-403.5 -142t-400 142.5t-142.5 397.5zM450 1890v17h142q26 -48 98.5 -142t142.5 -170v-16h-69q-96 79 -188.5 171.5t-125.5 139.5z" />
<glyph unicode="&#xda;" horiz-adv-x="1473" d="M190 520v942h103v-946q0 -211 117 -328.5t328.5 -117.5t326.5 115.5t115 320.5v956h102v-946q0 -252 -146 -394t-403.5 -142t-400 142.5t-142.5 397.5zM633 1579v16q73 79 144.5 171.5t97.5 140.5h141v-17q-81 -117 -313 -311h-70z" />
<glyph unicode="&#xdb;" horiz-adv-x="1473" d="M190 520v942h103v-946q0 -211 117 -328.5t328.5 -117.5t326.5 115.5t115 320.5v956h102v-946q0 -252 -146 -394t-403.5 -142t-400 142.5t-142.5 397.5zM444 1579v16q151 163 242 312h98q68 -120 242 -312v-16h-70q-122 101 -221 207q-108 -114 -221 -207h-70z" />
<glyph unicode="&#xdc;" horiz-adv-x="1473" d="M190 520v942h103v-946q0 -211 117 -328.5t328.5 -117.5t326.5 115.5t115 320.5v956h102v-946q0 -252 -146 -394t-403.5 -142t-400 142.5t-142.5 397.5zM481 1727q0 86 63.5 86t63.5 -86t-63.5 -86t-63.5 86zM862 1727q0 86 63.5 86t63.5 -86t-63.5 -86t-63.5 86z" />
<glyph unicode="&#xdd;" horiz-adv-x="1081" d="M0 1462h117l426 -800l428 800h110l-487 -897v-565h-105v557zM434 1579v16q73 79 144.5 171.5t97.5 140.5h141v-17q-81 -117 -313 -311h-70z" />
<glyph unicode="&#xde;" horiz-adv-x="1198" d="M207 0v1462h102v-264h256q522 0 522 -420q0 -212 -144 -325t-408 -113h-226v-340h-102zM309 428h201q247 0 357 81.5t110 257.5t-104 257.5t-322 81.5h-242v-678z" />
<glyph unicode="&#xdf;" horiz-adv-x="1194" d="M182 0v1206q0 173 103.5 267t292 94t286 -72.5t97.5 -211t-139 -249.5q-81 -64 -110.5 -100.5t-29.5 -78t14 -65.5q30 -49 145 -129.5t161 -130.5q90 -98 90 -238.5t-88 -226t-265 -85.5t-282 67v107q65 -38 148.5 -62t152.5 -24q114 0 174.5 54.5t60.5 149t-39 155.5 t-157.5 142t-166.5 141t-48 133t32.5 123t106.5 107.5t106.5 106t32.5 106.5q0 93 -70 143t-208.5 50t-219.5 -69t-81 -196v-1214h-99z" />
<glyph unicode="&#xe0;" horiz-adv-x="1085" d="M98 296q0 152 132.5 240t383.5 93l207 6v72q0 155 -63 234t-208.5 79t-307.5 -84l-37 86q179 84 356 84t265.5 -93t88.5 -290v-723h-73l-25 172h-8q-82 -105 -168.5 -148.5t-225.5 -43.5t-228 82t-89 234zM203 298q0 -115 62.5 -171.5t176.5 -56.5q174 0 274.5 99.5 t100.5 276.5v107l-190 -8q-229 -11 -326.5 -71.5t-97.5 -175.5zM255 1552v17h142q26 -48 98.5 -142t142.5 -170v-16h-69q-96 79 -188.5 171.5t-125.5 139.5z" />
<glyph unicode="&#xe1;" horiz-adv-x="1085" d="M98 296q0 152 132.5 240t383.5 93l207 6v72q0 155 -63 234t-208.5 79t-307.5 -84l-37 86q179 84 356 84t265.5 -93t88.5 -290v-723h-73l-25 172h-8q-82 -105 -168.5 -148.5t-225.5 -43.5t-228 82t-89 234zM203 298q0 -115 62.5 -171.5t176.5 -56.5q174 0 274.5 99.5 t100.5 276.5v107l-190 -8q-229 -11 -326.5 -71.5t-97.5 -175.5zM422 1241v16q73 79 144.5 171.5t97.5 140.5h141v-17q-81 -117 -313 -311h-70z" />
<glyph unicode="&#xe2;" horiz-adv-x="1085" d="M98 296q0 152 132.5 240t383.5 93l207 6v72q0 155 -63 234t-208.5 79t-307.5 -84l-37 86q179 84 356 84t265.5 -93t88.5 -290v-723h-73l-25 172h-8q-82 -105 -168.5 -148.5t-225.5 -43.5t-228 82t-89 234zM203 298q0 -115 62.5 -171.5t176.5 -56.5q174 0 274.5 99.5 t100.5 276.5v107l-190 -8q-229 -11 -326.5 -71.5t-97.5 -175.5zM251 1241v16q151 163 242 312h98q68 -120 242 -312v-16h-70q-122 101 -221 207q-108 -114 -221 -207h-70z" />
<glyph unicode="&#xe3;" horiz-adv-x="1085" d="M98 296q0 152 132.5 240t383.5 93l207 6v72q0 155 -63 234t-208.5 79t-307.5 -84l-37 86q179 84 356 84t265.5 -93t88.5 -290v-723h-73l-25 172h-8q-82 -105 -168.5 -148.5t-225.5 -43.5t-228 82t-89 234zM200 1243q10 111 63 174.5t137 63.5q48 0 88 -25t78 -56t70 -53 t61 -22q93 0 125 156h76q-16 -116 -69 -177t-132 -61q-71 0 -176 90q-32 26 -62.5 46t-69.5 20q-84 0 -116 -156h-73zM203 298q0 -115 62.5 -171.5t176.5 -56.5q174 0 274.5 99.5t100.5 276.5v107l-190 -8q-229 -11 -326.5 -71.5t-97.5 -175.5z" />
<glyph unicode="&#xe4;" horiz-adv-x="1085" d="M98 296q0 152 132.5 240t383.5 93l207 6v72q0 155 -63 234t-208.5 79t-307.5 -84l-37 86q179 84 356 84t265.5 -93t88.5 -290v-723h-73l-25 172h-8q-82 -105 -168.5 -148.5t-225.5 -43.5t-228 82t-89 234zM203 298q0 -115 62.5 -171.5t176.5 -56.5q174 0 274.5 99.5 t100.5 276.5v107l-190 -8q-229 -11 -326.5 -71.5t-97.5 -175.5zM282 1389q0 86 63.5 86t63.5 -86t-63.5 -86t-63.5 86zM663 1389q0 86 63.5 86t63.5 -86t-63.5 -86t-63.5 86z" />
<glyph unicode="&#xe5;" horiz-adv-x="1085" d="M98 296q0 152 132.5 240t383.5 93l207 6v72q0 155 -63 234t-208.5 79t-307.5 -84l-37 86q179 84 356 84t265.5 -93t88.5 -290v-723h-73l-25 172h-8q-82 -105 -168.5 -148.5t-225.5 -43.5t-228 82t-89 234zM203 298q0 -115 62.5 -171.5t176.5 -56.5q174 0 274.5 99.5 t100.5 276.5v107l-190 -8q-229 -11 -326.5 -71.5t-97.5 -175.5zM325 1454.5q0 95.5 60 154t157 58.5t157 -59t60 -154t-60 -153t-157 -58t-157 58t-60 153.5zM405 1454.5q0 -64.5 37.5 -102t99.5 -37.5t99.5 37.5t37.5 102.5t-39 102.5t-99.5 37.5t-98 -38t-37.5 -102.5z " />
<glyph unicode="&#xe6;" horiz-adv-x="1731" d="M98 294q0 149 125 238t377 97l201 6v72q0 155 -61.5 234t-204 79t-299.5 -84l-37 86q173 84 346 84q261 0 325 -211q111 213 347 213q184 0 289.5 -134.5t105.5 -363.5v-80h-715q0 -460 348 -460q85 0 150 12t174 57v-90q-92 -41 -165 -55t-161 -14q-295 0 -397 256 q-68 -133 -168 -194.5t-254 -61.5t-240 82.5t-86 231.5zM203 298q0 -115 61 -171.5t170 -56.5q169 0 266 99.5t97 276.5v107l-187 -8q-219 -11 -313 -71.5t-94 -175.5zM903 618h604q0 188 -77.5 295t-212.5 107q-284 0 -314 -402z" />
<glyph unicode="&#xe7;" horiz-adv-x="973" d="M119 540.5q0 266.5 137 417t375 150.5q141 0 270 -49l-27 -88q-141 47 -245 47q-200 0 -303 -123.5t-103 -349.5t103 -350.5t288 -124.5q148 0 275 53v-92q-104 -51 -273 -51q-233 0 -365 147t-132 413.5zM373 -393q30 -10 92 -10q160 0 160 108q0 94 -193 121l93 174h96 l-66 -117q168 -37 168 -174q0 -100 -67.5 -150.5t-188.5 -50.5q-68 0 -94 11v88z" />
<glyph unicode="&#xe8;" horiz-adv-x="1124" d="M119 533.5q0 261.5 128 418t332.5 156.5t315.5 -134t111 -364v-80h-783q2 -224 104.5 -342t293.5 -118q93 0 163.5 13t178.5 56v-90q-159 -69 -342 -69q-237 0 -369.5 146t-132.5 407.5zM229 618h672q0 189 -82 295.5t-233 106.5t-246 -103.5t-111 -298.5zM302 1552v17 h142q26 -48 98.5 -142t142.5 -170v-16h-69q-96 79 -188.5 171.5t-125.5 139.5z" />
<glyph unicode="&#xe9;" horiz-adv-x="1124" d="M119 533.5q0 261.5 128 418t332.5 156.5t315.5 -134t111 -364v-80h-783q2 -224 104.5 -342t293.5 -118q93 0 163.5 13t178.5 56v-90q-159 -69 -342 -69q-237 0 -369.5 146t-132.5 407.5zM229 618h672q0 189 -82 295.5t-233 106.5t-246 -103.5t-111 -298.5zM452 1241v16 q73 79 144.5 171.5t97.5 140.5h141v-17q-81 -117 -313 -311h-70z" />
<glyph unicode="&#xea;" horiz-adv-x="1124" d="M119 533.5q0 261.5 128 418t332.5 156.5t315.5 -134t111 -364v-80h-783q2 -224 104.5 -342t293.5 -118q93 0 163.5 13t178.5 56v-90q-159 -69 -342 -69q-237 0 -369.5 146t-132.5 407.5zM229 618h672q0 189 -82 295.5t-233 106.5t-246 -103.5t-111 -298.5zM290 1241v16 q151 163 242 312h98q68 -120 242 -312v-16h-70q-122 101 -221 207q-108 -114 -221 -207h-70z" />
<glyph unicode="&#xeb;" horiz-adv-x="1124" d="M119 533.5q0 261.5 128 418t332.5 156.5t315.5 -134t111 -364v-80h-783q2 -224 104.5 -342t293.5 -118q93 0 163.5 13t178.5 56v-90q-159 -69 -342 -69q-237 0 -369.5 146t-132.5 407.5zM229 618h672q0 189 -82 295.5t-233 106.5t-246 -103.5t-111 -298.5zM331 1389 q0 86 63.5 86t63.5 -86t-63.5 -86t-63.5 86zM712 1389q0 86 63.5 86t63.5 -86t-63.5 -86t-63.5 86z" />
<glyph unicode="&#xec;" horiz-adv-x="463" d="M-34 1552v17h142q26 -48 98.5 -142t142.5 -170v-16h-69q-96 79 -188.5 171.5t-125.5 139.5zM182 0v1087h99v-1087h-99z" />
<glyph unicode="&#xed;" horiz-adv-x="463" d="M107 1241v16q73 79 144.5 171.5t97.5 140.5h141v-17q-81 -117 -313 -311h-70zM182 0v1087h99v-1087h-99z" />
<glyph unicode="&#xee;" horiz-adv-x="463" d="M-58 1241v16q151 163 242 312h98q68 -120 242 -312v-16h-70q-122 101 -221 207q-108 -114 -221 -207h-70zM182 0v1087h99v-1087h-99z" />
<glyph unicode="&#xef;" horiz-adv-x="463" d="M-21 1389q0 86 63.5 86t63.5 -86t-63.5 -86t-63.5 86zM182 0v1087h99v-1087h-99zM360 1389q0 86 63.5 86t63.5 -86t-63.5 -86t-63.5 86z" />
<glyph unicode="&#xf0;" horiz-adv-x="1174" d="M117 469.5q0 229.5 126.5 359t332 129.5t346.5 -129l4 2q-64 270 -269 459l-270 -157l-49 77l244 146q-86 62 -199 119l45 81q147 -69 248 -145l225 137l49 -84l-202 -121q154 -151 230.5 -353t76.5 -454.5t-124 -404t-343.5 -151.5t-345 130t-125.5 359.5zM221 463 q0 -186 94.5 -289.5t271 -103.5t270 123t93.5 364q0 146 -97 228.5t-275 82.5q-357 0 -357 -405z" />
<glyph unicode="&#xf1;" horiz-adv-x="1208" d="M182 0v1087h84l19 -149h6q106 170 377 170q370 0 370 -397v-711h-98v705q0 164 -69 238.5t-214 74.5q-195 0 -285.5 -98.5t-90.5 -319.5v-600h-99zM282 1243q10 111 63 174.5t137 63.5q48 0 88 -25t78 -56t70 -53t61 -22q93 0 125 156h76q-16 -116 -69 -177t-132 -61 q-71 0 -176 90q-32 26 -62.5 46t-69.5 20q-84 0 -116 -156h-73z" />
<glyph unicode="&#xf2;" horiz-adv-x="1200" d="M119 545q0 266 129 414.5t353.5 148.5t352 -150.5t127.5 -414.5t-129 -413.5t-356 -149.5q-143 0 -252 69t-167 198t-58 298zM223 546q0 -225 98.5 -350.5t278.5 -125.5t278.5 125.5t98.5 350t-99.5 348.5t-279.5 124t-277.5 -123.5t-97.5 -348.5zM335 1552v17h142 q26 -48 98.5 -142t142.5 -170v-16h-69q-96 79 -188.5 171.5t-125.5 139.5z" />
<glyph unicode="&#xf3;" horiz-adv-x="1200" d="M119 545q0 266 129 414.5t353.5 148.5t352 -150.5t127.5 -414.5t-129 -413.5t-356 -149.5q-143 0 -252 69t-167 198t-58 298zM223 546q0 -225 98.5 -350.5t278.5 -125.5t278.5 125.5t98.5 350t-99.5 348.5t-279.5 124t-277.5 -123.5t-97.5 -348.5zM499 1241v16 q73 79 144.5 171.5t97.5 140.5h141v-17q-81 -117 -313 -311h-70z" />
<glyph unicode="&#xf4;" horiz-adv-x="1200" d="M119 545q0 266 129 414.5t353.5 148.5t352 -150.5t127.5 -414.5t-129 -413.5t-356 -149.5q-143 0 -252 69t-167 198t-58 298zM223 546q0 -225 98.5 -350.5t278.5 -125.5t278.5 125.5t98.5 350t-99.5 348.5t-279.5 124t-277.5 -123.5t-97.5 -348.5zM309 1241v16 q151 163 242 312h98q68 -120 242 -312v-16h-70q-122 101 -221 207q-108 -114 -221 -207h-70z" />
<glyph unicode="&#xf5;" horiz-adv-x="1200" d="M119 545q0 266 129 414.5t353.5 148.5t352 -150.5t127.5 -414.5t-129 -413.5t-356 -149.5q-143 0 -252 69t-167 198t-58 298zM223 546q0 -225 98.5 -350.5t278.5 -125.5t278.5 125.5t98.5 350t-99.5 348.5t-279.5 124t-277.5 -123.5t-97.5 -348.5zM264 1243 q10 111 63 174.5t137 63.5q48 0 88 -25t78 -56t70 -53t61 -22q93 0 125 156h76q-16 -116 -69 -177t-132 -61q-71 0 -176 90q-32 26 -62.5 46t-69.5 20q-84 0 -116 -156h-73z" />
<glyph unicode="&#xf6;" horiz-adv-x="1200" d="M119 545q0 266 129 414.5t353.5 148.5t352 -150.5t127.5 -414.5t-129 -413.5t-356 -149.5q-143 0 -252 69t-167 198t-58 298zM223 546q0 -225 98.5 -350.5t278.5 -125.5t278.5 125.5t98.5 350t-99.5 348.5t-279.5 124t-277.5 -123.5t-97.5 -348.5zM346 1389q0 86 63.5 86 t63.5 -86t-63.5 -86t-63.5 86zM727 1389q0 86 63.5 86t63.5 -86t-63.5 -86t-63.5 86z" />
<glyph unicode="&#xf7;" d="M111 682v82h948v-82h-948zM504 371q0 98 81 98t81 -98q0 -53 -23.5 -76t-58 -23t-57.5 23t-23 76zM504 1075q0 99 81 99t81 -99q0 -52 -23.5 -75t-58 -23t-57.5 23t-23 75z" />
<glyph unicode="&#xf8;" horiz-adv-x="1200" d="M119 553.5q0 257.5 129 406t354 148.5q179 0 301 -104l96 124l74 -55l-104 -137q112 -147 112 -402t-129 -404.5t-356 -149.5q-173 0 -291 98l-86 -113l-72 58l93 120q-121 153 -121 410.5zM223 558q0 -213 78 -335l543 705q-98 90 -262 90t-261.5 -123.5t-97.5 -336.5z M362 152q94 -82 238 -82q180 0 278.5 125.5t98.5 332.5t-72 326z" />
<glyph unicode="&#xf9;" horiz-adv-x="1208" d="M170 377v710h98v-704q0 -164 69 -238.5t214 -74.5q194 0 285.5 98t91.5 319v600h98v-1087h-84l-18 150h-6q-106 -170 -377 -170q-371 0 -371 397zM304 1552v17h142q26 -48 98.5 -142t142.5 -170v-16h-69q-96 79 -188.5 171.5t-125.5 139.5z" />
<glyph unicode="&#xfa;" horiz-adv-x="1208" d="M170 377v710h98v-704q0 -164 69 -238.5t214 -74.5q194 0 285.5 98t91.5 319v600h98v-1087h-84l-18 150h-6q-106 -170 -377 -170q-371 0 -371 397zM495 1241v16q73 79 144.5 171.5t97.5 140.5h141v-17q-81 -117 -313 -311h-70z" />
<glyph unicode="&#xfb;" horiz-adv-x="1208" d="M170 377v710h98v-704q0 -164 69 -238.5t214 -74.5q194 0 285.5 98t91.5 319v600h98v-1087h-84l-18 150h-6q-106 -170 -377 -170q-371 0 -371 397zM313 1241v16q151 163 242 312h98q68 -120 242 -312v-16h-70q-122 101 -221 207q-108 -114 -221 -207h-70z" />
<glyph unicode="&#xfc;" horiz-adv-x="1208" d="M170 377v710h98v-704q0 -164 69 -238.5t214 -74.5q194 0 285.5 98t91.5 319v600h98v-1087h-84l-18 150h-6q-106 -170 -377 -170q-371 0 -371 397zM350 1389q0 86 63.5 86t63.5 -86t-63.5 -86t-63.5 86zM731 1389q0 86 63.5 86t63.5 -86t-63.5 -86t-63.5 86z" />
<glyph unicode="&#xfd;" horiz-adv-x="940" d="M0 1087h102l230 -610q105 -281 133 -379h6q42 129 137 385l230 604h102l-487 -1263q-59 -154 -99 -208q-80 -108 -223 -108q-57 0 -127 21v86q58 -16 117 -16t98 24t71 75q39 63 126 302zM361 1241v16q73 79 144.5 171.5t97.5 140.5h141v-17q-81 -117 -313 -311h-70z" />
<glyph unicode="&#xfe;" horiz-adv-x="1219" d="M182 -492v2048h99v-391l-7 -247h7q114 190 368 190q220 0 335.5 -144.5t115.5 -416.5t-121.5 -419.5t-331.5 -147.5q-251 0 -366 188h-7l3 -84q4 -74 4 -162v-414h-99zM281 541q0 -255 85.5 -364t265.5 -109t271.5 124t91.5 347q0 479 -348 479q-193 0 -279.5 -105 t-86.5 -354v-18z" />
<glyph unicode="&#xff;" horiz-adv-x="940" d="M0 1087h102l230 -610q105 -281 133 -379h6q42 129 137 385l230 604h102l-487 -1263q-59 -154 -99 -208q-80 -108 -223 -108q-57 0 -127 21v86q58 -16 117 -16t98 24t71 75q39 63 126 302zM214 1389q0 86 63.5 86t63.5 -86t-63.5 -86t-63.5 86zM595 1389q0 86 63.5 86 t63.5 -86t-63.5 -86t-63.5 86z" />
<glyph unicode="&#x152;" horiz-adv-x="1839" d="M129 733q0 349 174.5 547.5t480.5 198.5q78 0 183 -17h747v-94h-655v-553h616v-94h-616v-627h655v-94h-756q-76 -16 -176 -16q-305 0 -479 200t-174 549zM240 731.5q0 -313.5 140.5 -482.5t401.5 -169q109 0 174 18v1266q-62 16 -172 16q-262 0 -403 -167.5t-141 -481z " />
<glyph unicode="&#x153;" horiz-adv-x="1942" d="M119 545q0 266 129 414.5t354 148.5q294 0 408 -279q110 279 399 279q192 0 303 -134t111 -364v-80h-762q2 -230 100.5 -345t276.5 -115q93 0 163.5 13t178.5 56v-90q-159 -69 -342 -69q-320 0 -432 266q-123 -266 -410 -266q-143 0 -252 69t-167 198t-58 298zM223 546 q0 -225 98.5 -350.5t275.5 -125.5t268 122.5t91 349.5t-93 351.5t-269 124.5t-273.5 -123.5t-97.5 -348.5zM1065 618h653q0 189 -82 295.5t-232 106.5t-237 -104t-102 -298z" />
<glyph unicode="&#x178;" horiz-adv-x="1081" d="M0 1462h117l426 -800l428 800h110l-487 -897v-565h-105v557zM288 1727q0 86 63.5 86t63.5 -86t-63.5 -86t-63.5 86zM669 1727q0 86 63.5 86t63.5 -86t-63.5 -86t-63.5 86z" />
<glyph unicode="&#x2c6;" horiz-adv-x="1182" d="M299 1241v16q151 163 242 312h98q68 -120 242 -312v-16h-70q-122 101 -221 207q-108 -114 -221 -207h-70z" />
<glyph unicode="&#x2dc;" horiz-adv-x="1182" d="M283 1243q10 111 63 174.5t137 63.5q48 0 88 -25t78 -56t70 -53t61 -22q93 0 125 156h76q-16 -116 -69 -177t-132 -61q-71 0 -176 90q-32 26 -62.5 46t-69.5 20q-84 0 -116 -156h-73z" />
<glyph unicode="&#x2000;" horiz-adv-x="953" />
<glyph unicode="&#x2001;" horiz-adv-x="1907" />
<glyph unicode="&#x2002;" horiz-adv-x="953" />
<glyph unicode="&#x2003;" horiz-adv-x="1907" />
<glyph unicode="&#x2004;" horiz-adv-x="635" />
<glyph unicode="&#x2005;" horiz-adv-x="476" />
<glyph unicode="&#x2006;" horiz-adv-x="317" />
<glyph unicode="&#x2007;" horiz-adv-x="317" />
<glyph unicode="&#x2008;" horiz-adv-x="238" />
<glyph unicode="&#x2009;" horiz-adv-x="381" />
<glyph unicode="&#x200a;" horiz-adv-x="105" />
<glyph unicode="&#x2010;" horiz-adv-x="659" d="M92 512v82h475v-82h-475z" />
<glyph unicode="&#x2011;" horiz-adv-x="659" d="M92 512v82h475v-82h-475z" />
<glyph unicode="&#x2012;" horiz-adv-x="659" d="M92 512v82h475v-82h-475z" />
<glyph unicode="&#x2013;" horiz-adv-x="1024" d="M82 512v82h860v-82h-860z" />
<glyph unicode="&#x2014;" horiz-adv-x="2048" d="M82 512v82h1884v-82h-1884z" />
<glyph unicode="&#x2018;" horiz-adv-x="297" d="M29 981q81 285 174 481h65q-30 -101 -64.5 -257t-45.5 -244h-117z" />
<glyph unicode="&#x2019;" horiz-adv-x="297" d="M29 961q70 231 110 501h117l12 -20q-75 -265 -174 -481h-65z" />
<glyph unicode="&#x201a;" horiz-adv-x="451" d="M68 -263q70 231 110 501h117l12 -20q-75 -265 -174 -481h-65z" />
<glyph unicode="&#x201c;" horiz-adv-x="614" d="M29 981q81 285 174 481h65q-30 -101 -64.5 -257t-45.5 -244h-117zM346 981q76 269 174 481h66q-72 -235 -111 -501h-117z" />
<glyph unicode="&#x201d;" horiz-adv-x="614" d="M29 961q70 231 110 501h117l12 -20q-75 -265 -174 -481h-65zM346 961q72 235 111 501h116l13 -20q-74 -264 -174 -481h-66z" />
<glyph unicode="&#x201e;" horiz-adv-x="768" d="M68 -263q70 231 110 501h117l12 -20q-75 -265 -174 -481h-65zM385 -263q72 235 111 501h116l13 -20q-74 -264 -174 -481h-66z" />
<glyph unicode="&#x2022;" horiz-adv-x="770" d="M231 749q0 88 40.5 133.5t113.5 45.5t113.5 -47t40.5 -132.5t-41 -133.5t-113 -48t-113 47t-41 135z" />
<glyph unicode="&#x2026;" horiz-adv-x="1466" d="M162 78q0 98 81 98t81 -98t-81 -98t-81 98zM651 78q0 98 81 98t81 -98t-81 -98t-81 98zM1141 78q0 98 81 98t81 -98t-81 -98t-81 98z" />
<glyph unicode="&#x202f;" horiz-adv-x="381" />
<glyph unicode="&#x2039;" horiz-adv-x="524" d="M82 516v27l309 393l62 -43l-254 -363l254 -362l-62 -43z" />
<glyph unicode="&#x203a;" horiz-adv-x="524" d="M72 168l254 362l-254 363l61 43l309 -391v-27l-309 -393z" />
<glyph unicode="&#x205f;" horiz-adv-x="476" />
<glyph unicode="&#x20ac;" d="M74 528v82h172q-4 38 -4 113l4 102h-172v82h184q39 272 183 425t362 153q170 0 309 -74l-39 -86q-132 72 -270 72q-174 0 -288 -125.5t-155 -364.5h502v-82h-510l-4 -104v-24q0 -65 4 -87h449v-82h-443q30 -217 147.5 -338.5t301.5 -121.5q148 0 287 65v-94 q-141 -59 -291 -59q-228 0 -367.5 140t-181.5 408h-180z" />
<glyph unicode="&#x2122;" horiz-adv-x="1485" d="M10 1384v78h522v-78h-219v-643h-86v643h-217zM608 741v721h125l221 -606l224 606h125v-721h-86v398l4 207h-7l-227 -605h-74l-221 609h-6l4 -201v-408h-82z" />
<glyph unicode="&#xe000;" horiz-adv-x="1085" d="M0 0v1085h1085v-1085h-1085z" />
</font>
</defs>
</svg>
